Лига Европы 2012-13 / 1/8 финала / Ответный матч / Рубин (Россия) - Леванте (Испания) / НТВ+ [14.03.2013, HD, H.264, 50 fps, RU, HDTVRip]

Ответить на тему

Автор Сообщение

Compiler


Стаж: 5 лет 9 месяцев

Сообщений: 946

Россия

Торрент-статистика

post 16-Мар-2013 17:01

Quote



Дата матча: 14.03.2013
Вид спорта: Футбол
Продолжительность: 01:37:22
Комментарий: Профессиональный
Язык комментариев: Русский
Автор рипа: Compiler (за исходник спасибо fuxxer666)
x264 [info]: frame I:902 Avg QP:22.28 size: 59702
x264 [info]: frame P:73366 Avg QP:24.85 size: 17584
x264 [info]: frame B:199120 Avg QP:29.49 size: 4354
x264 [info]: consecutive B-frames: 0.6% 3.6% 10.0% 85.8%
x264 [info]: mb I I16..4: 13.2% 74.1% 12.6%
x264 [info]: mb P I16..4: 2.3% 4.3% 0.4% P16..4: 48.0% 13.5% 8.5% 0.0% 0.0% skip:22.9%
x264 [info]: mb B I16..4: 0.2% 0.2% 0.0% B16..8: 38.3% 3.4% 0.5% direct: 2.2% skip:55.2% L0:47.3% L1:50.2% BI: 2.5%
x264 [info]: 8x8 transform intra:61.3% inter:67.4%
x264 [info]: direct mvs spatial:100.0% temporal:0.0%
x264 [info]: coded y,uvDC,uvAC intra: 53.6% 63.7% 22.1% inter: 11.8% 10.6% 0.7%
x264 [info]: i16 v,h,dc,p: 14% 40% 4% 42%
x264 [info]: i8 v,h,dc,ddl,ddr,vr,hd,vl,hu: 9% 11% 4% 9% 14% 13% 15% 11% 14%
x264 [info]: i4 v,h,dc,ddl,ddr,vr,hd,vl,hu: 10% 19% 6% 7% 12% 11% 13% 8% 14%
x264 [info]: i8c dc,h,v,p: 27% 32% 19% 22%
x264 [info]: Weighted P-Frames: Y:1.8% UV:1.0%
x264 [info]: ref P L0: 58.2% 15.4% 15.9% 5.3% 4.8% 0.5% 0.0%
x264 [info]: ref B L0: 76.4% 15.4% 6.7% 1.5%
x264 [info]: ref B L1: 92.1% 7.9%
x264 [info]: kb/s:3234.92
Format : Matroska
Format version : Version 4 / Version 2
File size : 3.67 GiB
Duration : 2h 32mn
Overall bit rate : 3 450 Kbps
Encoded date : UTC 2013-03-16 12:49:36
Writing application : mkvmerge v6.1.0 ('Old Devil') built on Mar 2 2013 15:33:01
Writing library : libebml v1.3.0 + libmatroska v1.4.0

Video
ID : 1
Format : AVC
Format/Info : Advanced Video Codec
Format profile : High@L3.2
Format settings, CABAC : Yes
Format settings, ReFrames : 5 frames
Codec ID : V_MPEG4/ISO/AVC
Duration : 2h 32mn
Bit rate : 3 190 Kbps
Width : 1 280 pixels
Height : 720 pixels
Display aspect ratio : 16:9
Frame rate mode : Constant
Frame rate : 50.000 fps
Color space : YUV
Chroma subsampling : 4:2:0
Bit depth : 8 bits
Scan type : Progressive
Bits/(Pixel*Frame) : 0.069
Stream size : 3.40 GiB (92%)
Writing library : x264 core 123 r2189 35cf912
Encoding settings : cabac=1 / ref=5 / deblock=1:0:0 / analyse=0x3:0x113 / me=umh / subme=8 / psy=1 / psy_rd=1.00:0.00 / mixed_ref=1 / me_range=16 / chroma_me=1 / trellis=2 / 8x8dct=1 / cqm=0 / deadzone=21,11 / fast_pskip=1 / chroma_qp_offset=-2 / threads=6 / sliced_threads=0 / nr=0 / decimate=1 / interlaced=0 / bluray_compat=0 / constrained_intra=0 / bframes=3 / b_pyramid=2 / b_adapt=2 / b_bias=0 / direct=3 / weightb=1 / open_gop=0 / weightp=2 / keyint=500 / keyint_min=50 / scenecut=40 / intra_refresh=0 / rc_lookahead=50 / rc=crf / mbtree=1 / crf=22.0 / qcomp=0.60 / qpmin=0 / qpmax=69 / qpstep=4 / ip_ratio=1.40 / aq=1:1.00
Default : Yes
Forced : No

Audio
ID : 2
Format : AC-3
Format/Info : Audio Coding 3
Mode extension : CM (complete main)
Format settings, Endianness : Big
Codec ID : A_AC3
Duration : 2h 32mn
Bit rate mode : Constant
Bit rate : 192 Kbps
Channel(s) : 2 channels
Channel positions : Front: L R
Sampling rate : 48.0 KHz
Bit depth : 16 bits
Compression mode : Lossy
Stream size : 209 MiB (6%)
Title : NTV+
Language : Russian
Default : Yes
Forced : No
<<2 - 0 (0:0, 0:0, 2:0)>>

Качество: HDTVRip
Формат: MKV
Видео кодек: H.264
Аудио кодек: AC3
Видео: 3235 kbps (crf = 22.0), 1280 x 720, 50 fps
Аудио: 48.0 kHz 2 ch, 192 kbps
Profile PM

tatan


Стаж: 3 года 8 месяцев

Сообщений: 7

Россия

Торрент-статистика

post 17-Мар-2013 19:18 (спустя 1 день 2 часа)

Quote


Никогда не загадывал счет, но тут меня приятель попросил назвать результат, я уверенно сказал 2-0. И надо же угадал! По той игре, что мы видели на протяжении 90 основных минут, можно было "попасть пальцем в небо", но Рондон и Дядюн спасли мое положение ;-)
Profile PM

post 11-Июн-2015 13:08 (спустя 2 года 2 месяца)


Топик был перенесен из форума Плей-офф в форум Лига Европы 2012-13

fuххer666
 
Ответить на тему