Лига Европы 2012-13 / 1/8 финала / Ответный матч / Интер (Италия) — Тоттенхэм Хотспур (Англия) / Sky Calcio HD [14.03.2012, HD, H.264, 50 fps, 720р, ITA + INT, HDTVRip]

Ответить на тему

Автор Сообщение

Compiler


Стаж: 5 лет 9 месяцев

Сообщений: 946

Россия

Торрент-статистика

post 19-Мар-2013 15:24

Quote



Дата матча: 14.03.2013
Вид спорта: Футбол
Продолжительность: *
Комментарий: Профессиональный
Язык комментариев: Итальянский (Sky Calcio) & Интершум
Автор рипа: Compiler (за исходник спасибо boss)
02:26:26
Format : Matroska
Format version : Version 4 / Version 2
File size : 5.28 GiB
Duration : 2h 26mn
Overall bit rate : 5 160 Kbps
Encoded date : UTC 2013-03-19 11:05:27
Writing application : mkvmerge v6.1.0 ('Old Devil') built on Mar 2 2013 15:33:01
Writing library : libebml v1.3.0 + libmatroska v1.4.0

Video
ID : 1
Format : AVC
Format/Info : Advanced Video Codec
Format profile : High@L3.2
Format settings, CABAC : Yes
Format settings, ReFrames : 5 frames
Codec ID : V_MPEG4/ISO/AVC
Duration : 2h 26mn
Bit rate : 4 481 Kbps
Width : 1 280 pixels
Height : 720 pixels
Display aspect ratio : 16:9
Frame rate mode : Constant
Frame rate : 50.000 fps
Color space : YUV
Chroma subsampling : 4:2:0
Bit depth : 8 bits
Scan type : Progressive
Bits/(Pixel*Frame) : 0.097
Stream size : 4.58 GiB (87%)
Writing library : x264 core 123 r2189 35cf912
Encoding settings : cabac=1 / ref=5 / deblock=1:0:0 / analyse=0x3:0x113 / me=umh / subme=8 / psy=1 / psy_rd=1.00:0.00 / mixed_ref=1 / me_range=16 / chroma_me=1 / trellis=1 / 8x8dct=1 / cqm=0 / deadzone=21,11 / fast_pskip=1 / chroma_qp_offset=-2 / threads=6 / sliced_threads=0 / nr=0 / decimate=1 / interlaced=0 / bluray_compat=0 / constrained_intra=0 / bframes=3 / b_pyramid=2 / b_adapt=2 / b_bias=0 / direct=3 / weightb=1 / open_gop=0 / weightp=2 / keyint=500 / keyint_min=50 / scenecut=40 / intra_refresh=0 / rc_lookahead=50 / rc=crf / mbtree=1 / crf=22.0 / qcomp=0.60 / qpmin=0 / qpmax=69 / qpstep=4 / ip_ratio=1.40 / aq=1:1.00
Default : Yes
Forced : No

Audio #1
ID : 2
Format : AC-3
Format/Info : Audio Coding 3
Mode extension : CM (complete main)
Format settings, Endianness : Big
Codec ID : A_AC3
Duration : 2h 26mn
Bit rate mode : Constant
Bit rate : 384 Kbps
Channel(s) : 6 channels
Channel positions : Front: L C R, Side: L R, LFE
Sampling rate : 48.0 KHz
Bit depth : 16 bits
Compression mode : Lossy
Delay relative to video : 98ms
Stream size : 402 MiB (7%)
Language : Italian
Default : Yes
Forced : No

Audio #2
ID : 3
Format : AC-3
Format/Info : Audio Coding 3
Mode extension : CM (complete main)
Format settings, Endianness : Big
Codec ID : A_AC3
Duration : 2h 26mn
Bit rate mode : Constant
Bit rate : 192 Kbps
Channel(s) : 2 channels
Channel positions : Front: L R
Sampling rate : 48.0 KHz
Bit depth : 16 bits
Compression mode : Lossy
Stream size : 201 MiB (4%)
Title : Stadium
Default : No
Forced : No

Качество: HDTVRip
Формат: MKV
Видео кодек: H.264
Аудио кодек: AC3
Видео: 4481 kbps (crf = 22.0), 1280 x 720, 50 fps
Аудио #1 [Italian]: 48.0 kHz 6 ch, 384 kbps
Аудио #1 [Stadium Sound]: 48.0 kHz 2 ch, 192 kbps


Последний раз редактировалось: Compiler (2013-03-19 15:49), всего редактировалось 1 раз
Profile PM

soprani


Стаж: 6 лет

Сообщений: 3185

Откуда: Киев, Оболонь

Украина

Торрент-статистика

post 19-Мар-2013 15:31 (спустя 7 минут)

Quote




Супер матч в отличном качестве!!!

_________________
Profile PM

Curtis


Стаж: 6 лет

Сообщений: 893

Россия

Торрент-статистика

post 19-Мар-2013 15:38 (спустя 6 минут)

Quote


круто,спасибо!
Profile PM

Gorlum


Стаж: 6 лет

Сообщений: 1866

Россия

Торрент-статистика

post 19-Мар-2013 22:19 (спустя 6 часов)

Quote


Спасибо, не забыл, как обещал. Засмотрим перед сном ab

_________________
Profile PM

.Arsenal.


Стаж: 3 года 8 месяцев

Сообщений: 10

Иордания

Торрент-статистика

post 11-Июн-2013 15:40 (спустя 2 месяца 22 дня)

Quote


thank you so much for the game.. can you seed it again please..
Profile PM

post 11-Июн-2015 13:08 (спустя 1 год 11 месяцев)


Топик был перенесен из форума Плей-офф в форум Лига Европы 2012-13

fuххer666
 
Ответить на тему