Toray Pan Pacific Open - Tokyo / Токио (Япония) / Финал / Вера Звонарева (Россия) - Агнешка Радванска (Польша) / Zvonareva - Radwanska / HD Спорт [01.10.2011, SD, MPEG, RU, HDTVRip]

Ответить на тему

Автор Сообщение

ANDREY2010


Стаж: 9 лет

Сообщений: 1183

Откуда: Липецк

Россия

Торрент-статистика

post 02-Окт-2011 06:16

Quote


Toray Pan Pacific Open - Tokyo / Токио (Япония) / Финал
Вера Звонарева (Россия) - Агнешка Радванска (Польша) / Zvonareva - Radwanska / HD Спорт.

Дата соревнования: 01.10.2011
Вид спорта: Большой теннис
Участники: Вера Звонарева (Россия) - Агнешка Радванска (Польша)
Продолжительность: *
Комментарий: Профессиональный
Язык комментариев: русский (Дмитриева)
Рип: Собственный. (HDTV исходник от spika-ol)
Качество: HDTVRip
Формат: MPEG
Видео кодек: MPEG2
Аудио кодек: MPEG Audio
Видео: MPEG-2 720x576, 16:9, 25 fps, 2 364 Kbps,
Аудио: MPEG Layer 3, 48.0 KHz, 2 ch, 96 Kbps,
General
Complete name : Tokyo Open-2011.Zvo-Kvi.Final.01.10.11.[rgfootball.net].mpg
Format : MPEG-PS
File size : 1.66 GiB
Duration : 1h 32mn
Overall bit rate : 2 562 Kbps

Video
ID : 224 (0xE0)
Format : MPEG Video
Format version : Version 2
Format profile : Main@Main
Format settings, BVOP : Yes
Format settings, Matrix : Default
Duration : 1h 32mn
Bit rate mode : Variable
Bit rate : 2 364 Kbps
Nominal bit rate : 9 000 Kbps
Width : 720 pixels
Height : 576 pixels
Display aspect ratio : 16:9
Frame rate : 25.000 fps
Standard : PAL
Resolution : 8 bits
Colorimetry : 4:2:0
Scan type : Progressive
Bits/(Pixel*Frame) : 0.228
Stream size : 1.53 GiB (92%)

Audio
ID : 192 (0xC0)
Format : MPEG Audio
Format version : Version 1
Format profile : Layer 3
Format_Settings_Mode : Joint stereo
Format_Settings_ModeExtension : MS Stereo
Duration : 1h 32mn
Bit rate mode : Constant
Bit rate : 96.0 Kbps
Channel(s) : 2 channels
Sampling rate : 48.0 KHz
Stream size : 63.8 MiB (4%)

Menu
01:32:56

_________________
лучшие спорт каналы
раздаю вечером-ночью af скачавшие оставайтесь на раздаче как можно дольше


Последний раз редактировалось: ANDREY2010 (2011-10-03 09:13), всего редактировалось 4 раз(а)
Profile PM

olegzzka


Стаж: 10 лет

Сообщений: 1046

Откуда: Новосибирск

ОАЭ

Торрент-статистика

post 02-Окт-2011 12:41 (спустя 6 часов)

Quote


Цитата:

Видео: MPEG-2 720x576
а скрины 1024х576, вы уж определитесь какое разрешение.

_________________
[spoiler="Теперь её знают все"] [/spoiler]
Profile PM

ANDREY2010


Стаж: 9 лет

Сообщений: 1183

Откуда: Липецк

Россия

Торрент-статистика

post 02-Окт-2011 15:22 (спустя 2 часа 40 минут)

Quote


olegzzka
В оформление вставил MediaInfo, а снимки делал в VLC.
Profile PM

oleg_1954


Стаж: 10 лет

Сообщений: 9783

Откуда: Волгоград

Россия

Торрент-статистика

post 02-Окт-2011 19:54 (спустя 4 часа)

Quote


olegzzka писал(а):

Цитата:

Видео: MPEG-2 720x576
а скрины 1024х576, вы уж определитесь какое разрешение.
Всё правильно со "скринами". Только вот рекламу можно было и вырезать...

_________________
Donate: Yandexmoney 410011809224246
Сбербанк 4274 3200 2947 3116
Profile PM

ANDREY2010


Стаж: 9 лет

Сообщений: 1183

Откуда: Липецк

Россия

Торрент-статистика

post 03-Окт-2011 01:43 (спустя 5 часов)

Quote


oleg_1954 писал(а):

Только вот рекламу можно было и вырезать...
ну рекламу я пока не знаю как вырезать, я только пока делаю рипы и все!

но постой вы что скачали этот релиз? но как? я никому ничего пока не раздавал.
вот это уже мой 3 релиз и у меня вообще никак не идет отдача.

может поднимите тему повыше.

_________________
лучшие спорт каналы
раздаю вечером-ночью af скачавшие оставайтесь на раздаче как можно дольше
Profile PM

oleg_1954


Стаж: 10 лет

Сообщений: 9783

Откуда: Волгоград

Россия

Торрент-статистика

post 03-Окт-2011 09:58 (спустя 8 часов)

Quote


ANDREY2010 писал(а):

oleg_1954 писал(а):

Только вот рекламу можно было и вырезать...
ну рекламу я пока не знаю как вырезать, я только пока делаю рипы и все!

но постой вы что скачали этот релиз? но как? я никому ничего пока не раздавал.
вот это уже мой 3 релиз и у меня вообще никак не идет отдача.

может поднимите тему повыше.
Я не скачивал, просто судя по продолжительности - реклама не вырезана.
P.S. Тема сама поднимается, если пишут сообщение.

_________________
Donate: Yandexmoney 410011809224246
Сбербанк 4274 3200 2947 3116
Profile PM
Ответить на тему