Dubai 2011 / Полуфинал / К.Возняцки - Е.Янкович / C.Wozniacki - J.Jankovic / НТВ+ [19.02.2011, HD, 720p, RU, SAT]

Ответить на тему

Автор Сообщение

oleg_1954


Стаж: 10 лет

Сообщений: 9781

Откуда: Волгоград

Россия

Торрент-статистика

post 22-Фев-2011 19:37

Quote


Caroline Wozniacki - Jelena Jankovic. Dubai 2011. Semifinal
Каролин Возняцки - Елена Янкович. Дубай 2011. Полуфинал

Год выпуска: 2011
Вид спорта: Теннис
Участники: Каролин Возняцки - Елена Янкович. Дубай 2011. Полуфинал
Комментарий: Профессиональный русский (А.Дмитриева)
Качество: SATRip
Формат: MKV
Видео кодек: H.264
Аудио кодек: AC3
Видео: MPEG4 Video H.264 1280x720 50.00 fps Bit rate 3166 Kbps Aspect Ratio 16:9
Аудио: Русский Dolby AC3 48000Hz 6 channels 448 Kbps
Исходный файл из раздачи
Автор "рипа" microlafe
02:01:06
General
Format : Matroska
File size : 3.12 GiB
Duration : 2h 1mn
Overall bit rate : 3 687 Kbps
Movie name : C.Wozniacki - J.Jankovic.Dubai 2011.SF
Encoded date : UTC 2011-02-22 13:52:49
Writing application : mkvmerge v4.0.0 ('The Stars were mine') built on Jun 6 2010 16:18:42
Writing library : libebml v1.0.0 + libmatroska v1.0.0

Video
ID : 1
Format : AVC
Format/Info : Advanced Video Codec
Format profile : High@L3.2
Format settings, CABAC : Yes
Format settings, ReFrames : 4 frames
Muxing mode : Container profile=Unknown@3.2
Codec ID : V_MPEG4/ISO/AVC
Duration : 2h 1mn
Bit rate : 3 166 Kbps
Width : 1 280 pixels
Height : 720 pixels
Display aspect ratio : 16:9
Frame rate : 50.000 fps
Color space : YUV
Chroma subsampling : 4:2:0
Bit depth : 8 bits
Scan type : Progressive
Bits/(Pixel*Frame) : 0.069
Stream size : 2.68 GiB (86%)
Writing library : x264 core 92 r1510 33d382a
Encoding settings : cabac=1 / ref=3 / deblock=1:0:0 / analyse=0x3:0x113 / me=hex / subme=7 / psy=1 / psy_rd=1.00:0.00 / mixed_ref=1 / me_range=16 / chroma_me=1 / trellis=1 / 8x8dct=1 / cqm=0 / deadzone=21,11 / fast_pskip=1 / chroma_qp_offset=-2 / threads=3 / sliced_threads=0 / nr=0 / decimate=1 / interlaced=0 / constrained_intra=0 / bframes=3 / b_pyramid=2 / b_adapt=1 / b_bias=0 / direct=1 / wpredb=1 / wpredp=2 / keyint=250 / keyint_min=25 / scenecut=40 / intra_refresh=0 / rc_lookahead=40 / rc=crf / mbtree=1 / crf=24.0 / qcomp=0.60 / qpmin=10 / qpmax=51 / qpstep=4 / ip_ratio=1.40 / aq=1:1.00
Language : English

Audio
ID : 2
Format : AC-3
Format/Info : Audio Coding 3
Mode extension : CM (complete main)
Codec ID : A_AC3
Duration : 2h 1mn
Bit rate mode : Constant
Bit rate : 448 Kbps
Channel(s) : 6 channels
Channel positions : Front: L C R, Side: L R, LFE
Sampling rate : 48.0 KHz
Bit depth : 16 bits
Video delay : 12ms
Stream size : 388 MiB (12%)
Title : А.Дмитриева
Language : Russian

_________________
Donate: Yandexmoney 410011809224246
Сбербанк 4274 3200 2947 3116
Profile PM
Ответить на тему