Australian Open 2011 / 1й круг / Йен-Сун Лу - Жиль Симон / Yen-Hsun Lu - G.Simon / Спорт HD [17.01.2011, HD, 720p, RU, SAT]

Ответить на тему

Автор Сообщение

oleg_1954


Стаж: 11 лет

Сообщений: 10078

Откуда: Волгоград

Россия

Торрент-статистика

post 20-Янв-2011 21:02

Quote



Yen-Hsun Lu - Gilles Simon. Australian Open 2011. 1st Round
Йен-Сун Лу - Жиль Симон. Открытый чемпионат Австралии 2011. 1й круг

Год выпуска: 2011
Вид спорта: Теннис
Участники: Йен-Сун Лу - Жиль Симон. Открытый чемпионат Австралии 2011. 1й круг
Комментарий: Профессиональный русский (С.Дерябкин)
Качество: SATRip
Формат: MKV
Видео кодек: H.264
Аудио кодек: AC3, AAC
Видео: Видео: MPEG4 Video H.264 1280x720 50.00 fps Bit rate 2111 Kbps Aspect Ratio 16:9
Аудио: Русский Dolby AC3 48000Hz 6 channels 448 Kbps
Исходный файл из раздачи: Australian Open 2011 / Йен-Сун Лу - Симон / Yen-Hsun Lu - Gilles Simon / Спорт HD [17.01.2011, HD, 1080i, RU]
Автор "рипа" microlafe
03:34:55
General
Format : Matroska
File size : 3.96 GiB
Duration : 3h 37mn
Overall bit rate : 2 611 Kbps
Movie name : LU Yen-Hsun - Gilles Simon.AO 2011.R1
Encoded date : UTC 2011-01-20 15:20:39
Writing application : mkvmerge v4.0.0 ('The Stars were mine') built on Jun 6 2010 16:18:42
Writing library : libebml v1.0.0 + libmatroska v1.0.0

Video
ID : 1
Format : AVC
Format/Info : Advanced Video Codec
Format profile : High@L3.2
Format settings, CABAC : Yes
Format settings, ReFrames : 4 frames
Muxing mode : Container profile=Unknown@3.2
Codec ID : V_MPEG4/ISO/AVC
Duration : 3h 37mn
Bit rate : 2 111 Kbps
Width : 1 280 pixels
Height : 720 pixels
Display aspect ratio : 16:9
Frame rate : 50.000 fps
Color space : YUV
Chroma subsampling : 4:2:0
Bit depth : 8 bits
Scan type : Progressive
Bits/(Pixel*Frame) : 0.046
Stream size : 3.20 GiB (81%)
Writing library : x264 core 92 r1510 33d382a
Encoding settings : cabac=1 / ref=3 / deblock=1:0:0 / analyse=0x3:0x113 / me=hex / subme=7 / psy=1 / psy_rd=1.00:0.00 / mixed_ref=1 / me_range=16 / chroma_me=1 / trellis=1 / 8x8dct=1 / cqm=0 / deadzone=21,11 / fast_pskip=1 / chroma_qp_offset=-2 / threads=3 / sliced_threads=0 / nr=0 / decimate=1 / interlaced=0 / constrained_intra=0 / bframes=3 / b_pyramid=2 / b_adapt=1 / b_bias=0 / direct=1 / wpredb=1 / wpredp=2 / keyint=250 / keyint_min=25 / scenecut=40 / intra_refresh=0 / rc_lookahead=40 / rc=crf / mbtree=1 / crf=25.0 / qcomp=0.60 / qpmin=10 / qpmax=51 / qpstep=4 / ip_ratio=1.40 / aq=1:1.00
Language : English

Audio
ID : 2
Format : AC-3
Format/Info : Audio Coding 3
Mode extension : CM (complete main)
Codec ID : A_AC3
Duration : 3h 37mn
Bit rate mode : Constant
Bit rate : 448 Kbps
Channel(s) : 6 channels
Channel positions : Front: L C R, Side: L R, LFE
Sampling rate : 48.0 KHz
Bit depth : 16 bits
Stream size : 695 MiB (17%)
Title : С.Дерябкин
Language : Russian

_________________
Donate: Yandexmoney 410011809224246
Сбербанк 4274 3200 7566 3347
Profile PM
Ответить на тему