Australian Open 2011 / 1й круг / Д.Янг - М.Чилич / D.Young - M.Cilic / Спорт HD [19.01.2011, HD, 720p, RU, SAT]

Ответить на тему

Автор Сообщение

oleg_1954


Стаж: 11 лет

Сообщений: 10092

Откуда: Волгоград

Россия

Торрент-статистика

post 21-Янв-2011 19:37

Quote



Donald Young - Marin Cilic. Australian Open 2011. 1st Round
Дональд Янг - Марин Чилич. Открытый чемпионат Австралии 2011. 1й круг

Год выпуска: 2011
Вид спорта: Теннис
Участники: Дональд Янг - Марин Чилич. Открытый чемпионат Австралии 2011. 1й круг
Комментарий: Профессиональный русский (А.Метревели)
Качество: SATRip
Формат: MKV
Видео кодек: H.264
Аудио кодек: AC3
Видео: MPEG4 Video H.264 1280x704 50.00 fps Bit rate 2480 Kbps Aspect Ratio 16:9
Аудио: Русский Dolby AC3 48000Hz 6 channels 448 Kbps
Исходный файл из раздачи
Автор "рипа" microlafe
01:42:53
General
Format : Matroska
File size : 2.15 GiB
Duration : 1h 42mn
Overall bit rate : 2 987 Kbps
Movie name : D.Young - M.Cilic.AO 2011.R1
Encoded date : UTC 2011-01-21 08:00:39
Writing application : mkvmerge v4.0.0 ('The Stars were mine') built on Jun 6 2010 16:18:42
Writing library : libebml v1.0.0 + libmatroska v1.0.0

Video
ID : 1
Format : AVC
Format/Info : Advanced Video Codec
Format profile : High@L3.2
Format settings, CABAC : Yes
Format settings, ReFrames : 4 frames
Muxing mode : Container profile=Unknown@3.2
Codec ID : V_MPEG4/ISO/AVC
Duration : 1h 42mn
Bit rate : 2 480 Kbps
Width : 1 280 pixels
Height : 704 pixels
Display aspect ratio : 16:9
Original display aspect ratio : 16:9
Frame rate : 50.000 fps
Color space : YUV
Chroma subsampling : 4:2:0
Bit depth : 8 bits
Scan type : Progressive
Bits/(Pixel*Frame) : 0.055
Stream size : 1.78 GiB (83%)
Language : English

Audio
ID : 2
Format : AC-3
Format/Info : Audio Coding 3
Mode extension : CM (complete main)
Codec ID : A_AC3
Duration : 1h 42mn
Bit rate mode : Constant
Bit rate : 448 Kbps
Channel(s) : 6 channels
Channel positions : Front: L C R, Side: L R, LFE
Sampling rate : 48.0 KHz
Bit depth : 16 bits
Video delay : 28ms
Stream size : 330 MiB (15%)
Title : А.Метревели
Language : Russian

_________________
Donate: Yandexmoney 410011809224246
Сбербанк 4274 3200 7566 3347


Последний раз редактировалось: oleg_1954 (2012-08-28 16:04), всего редактировалось 3 раз(а)
Profile PM

LeBron


Стаж: 10 лет

Сообщений: 1018

Откуда: г. Брянск

Россия

Торрент-статистика

post 21-Янв-2011 19:55 (спустя 18 минут)

Quote


oleg_1954
сможешь сделать рип матча Кузнецова - Энин?

_________________


Последний раз редактировалось: LeBron (2011-07-25 19:01), всего редактировалось 1 раз
Profile PM

oleg_1954


Стаж: 11 лет

Сообщений: 10092

Откуда: Волгоград

Россия

Торрент-статистика

post 21-Янв-2011 20:29 (спустя 33 минуты)

Quote


LeBron писал(а):

oleg_1954
сможешь сделать рип матча Кузнецова - Энин?
Cкачаю Отсюда - сделаю HD.720 наверное...

_________________
Donate: Yandexmoney 410011809224246
Сбербанк 4274 3200 7566 3347


Последний раз редактировалось: oleg_1954 (2011-07-25 19:01), всего редактировалось 1 раз
Profile PM

LeBron


Стаж: 10 лет

Сообщений: 1018

Откуда: г. Брянск

Россия

Торрент-статистика

post 21-Янв-2011 20:37 (спустя 8 минут)

Quote


oleg_1954
спасибо

_________________
Profile PM
Ответить на тему