Australian Open 2011 / 2й круг / Х.М.Дель Потро - М.Багдатис / J.M.Del Potro - M.Baghdatis / Спорт HD [20.01.2011, HD, 720p, RU, EN, SAT]

Ответить на тему

Автор Сообщение

oleg_1954


Стаж: 11 лет

Сообщений: 10091

Откуда: Волгоград

Россия

Торрент-статистика

post 22-Янв-2011 17:20

Quote



Juan Martin Del Potro - Marcos Baghdatis. Australian Open 2011. 2nd Round
Хуан Мартин Дель Потро - Маркос Багдатис. Открытый чемпионат Австралии 2011. 2й круг

Год выпуска: 2011
Вид спорта: Теннис
Участники: Хуан Мартин Дель Потро - Маркос Багдатис. Открытый чемпионат Австралии 2011. 2й круг
Комментарий: Профессиональный 1.Русский (А.Метревели) 2.Английский
Качество: SATRip
Формат: MKV
Видео кодек: H.264
Аудио кодек: AC3
Видео: MPEG4 Video H.264 1280x704 50.00 fps Bit rate 2646 Kbps Aspect Ratio 16:9
Аудио 1: Русский Dolby AC3 48000Hz 6 channels 448 Kbps
Аудио 2: Английский Dolby AC3 48000 Hz stereo 192 Kbps
Исходный файл из раздачи
Автор "рипа" spika-ol
02:55:22
Английская звуковая дорожка из раздачи с другого "трекера"
Комментарий с 7 й минуты. В рекламных вставках - звук с канала "НТВ"
English commentary from 7 min. In the missing fragments - the sound of the channel "NTV+"
General
Format : Matroska
File size : 4.11 GiB
Duration : 2h 55mn
Overall bit rate : 3 353 Kbps
Movie name : J.M.Del Potro - M.Baghdatis.AO 2011.R2
Encoded date : UTC 2011-01-22 12:12:06
Writing application : mkvmerge v4.0.0 ('The Stars were mine') built on Jun 6 2010 16:18:42
Writing library : libebml v1.0.0 + libmatroska v1.0.0

Video
ID : 1
Format : AVC
Format/Info : Advanced Video Codec
Format profile : High@L3.2
Format settings, CABAC : Yes
Format settings, ReFrames : 4 frames
Muxing mode : Container profile=Unknown@3.2
Codec ID : V_MPEG4/ISO/AVC
Duration : 2h 55mn
Bit rate : 2 646 Kbps
Width : 1 280 pixels
Height : 704 pixels
Display aspect ratio : 16:9
Original display aspect ratio : 16:9
Frame rate : 50.000 fps
Color space : YUV
Chroma subsampling : 4:2:0
Bit depth : 8 bits
Scan type : Progressive
Bits/(Pixel*Frame) : 0.059
Stream size : 3.24 GiB (79%)
Writing library : x264 core 92 r1510 33d382a
Encoding settings : cabac=1 / ref=2 / deblock=1:0:0 / analyse=0x3:0x113 / me=hex / subme=6 / psy=1 / psy_rd=1.00:0.00 / mixed_ref=1 / me_range=16 / chroma_me=1 / trellis=1 / 8x8dct=1 / cqm=0 / deadzone=21,11 / fast_pskip=1 / chroma_qp_offset=-2 / threads=3 / sliced_threads=0 / nr=0 / decimate=1 / interlaced=0 / constrained_intra=0 / bframes=3 / b_pyramid=2 / b_adapt=1 / b_bias=0 / direct=1 / wpredb=1 / wpredp=2 / keyint=250 / keyint_min=25 / scenecut=40 / intra_refresh=0 / rc_lookahead=30 / rc=crf / mbtree=1 / crf=24.0 / qcomp=0.60 / qpmin=10 / qpmax=51 / qpstep=4 / ip_ratio=1.40 / aq=1:1.00
Language : English

Audio #1
ID : 2
Format : AC-3
Format/Info : Audio Coding 3
Mode extension : CM (complete main)
Codec ID : A_AC3
Duration : 2h 55mn
Bit rate mode : Constant
Bit rate : 448 Kbps
Channel(s) : 6 channels
Channel positions : Front: L C R, Side: L R, LFE
Sampling rate : 48.0 KHz
Bit depth : 16 bits
Video delay : 22ms
Stream size : 562 MiB (13%)
Title : А.Метревели
Language : Russian

Audio #2
ID : 3
Format : AC-3
Format/Info : Audio Coding 3
Mode extension : CM (complete main)
Codec ID : A_AC3
Duration : 2h 55mn
Bit rate mode : Constant
Bit rate : 192 Kbps
Channel(s) : 2 channels
Channel positions : Front: L R
Sampling rate : 48.0 KHz
Bit depth : 16 bits
Stream size : 241 MiB (6%)
Language : English

Menu
00:08:39.600 : en:1 Set
00:43:58.360 : en:2 Set
01:27:15.560 : en:3 Set
02:13:10.560 : en:4 Set
02:50:37.200 : en:Match Point
02:52:29.440 : en:Interview

_________________
Donate: Yandexmoney 410011809224246
Сбербанк 4274 3200 7566 3347


Последний раз редактировалось: oleg_1954 (2011-12-27 13:16), всего редактировалось 4 раз(а)
Profile PM

woodaqua28


Стаж: 10 лет

Сообщений: 1

Торрент-статистика

post 22-Янв-2011 20:50 (спустя 3 часа)

Quote


thanks
Profile PM
Ответить на тему