Australian Open 2011 / 3й круг / К.Возняцки - Д.Цибулкова / C.Wozniacki - D.Cibulkova / Евроспорт HD [21.01.2011, HD, 720p, RU, SAT]

Ответить на тему

Автор Сообщение

oleg_1954


Стаж: 11 лет

Сообщений: 10092

Откуда: Волгоград

Россия

Торрент-статистика

post 23-Янв-2011 22:12

Quote



Caroline Wozniacki - Dominika Cibulkova. Australian Open 2011. 3rd Round
Каролин Возняцки - Доминика Цибулкова. Открытый чемпионат Австралии 2011. 3й круг

Год выпуска: 2011
Вид спорта: Теннис
Участники: Каролин Возняцки - Доминика Цибулкова. Открытый чемпионат Австралии 2011. 3й круг
Комментарий: Профессиональный русский (В.Ташев)
Качество: SATRip
Формат: MKV
Видео кодек: H.264
Аудио кодек: AAC
Видео: MPEG4 Video H.264 1280x704 50.00 fps Bit rate 2337 Kbps Aspect Ratio 16:9
Аудио: Русский MPEG Audio 48000 Hz stereo 192 Kbps
Исходный файл из раздачи
Автор "рипа" spika-ol
01:31:23
General
Format : Matroska
File size : 1.65 GiB
Duration : 1h 31mn
Overall bit rate : 2 580 Kbps
Movie name : C.Wozniacki - D.Cibulkova.AO 2011.R3
Encoded date : UTC 2011-01-23 17:42:06
Writing application : mkvmerge v4.0.0 ('The Stars were mine') built on Jun 6 2010 16:18:42
Writing library : libebml v1.0.0 + libmatroska v1.0.0

Video
ID : 1
Format : AVC
Format/Info : Advanced Video Codec
Format profile : High@L3.2
Format settings, CABAC : Yes
Format settings, ReFrames : 4 frames
Muxing mode : Container profile=Unknown@3.2
Codec ID : V_MPEG4/ISO/AVC
Duration : 1h 31mn
Bit rate : 2 337 Kbps
Width : 1 280 pixels
Height : 704 pixels
Display aspect ratio : 16:9
Original display aspect ratio : 16:9
Frame rate : 50.000 fps
Color space : YUV
Chroma subsampling : 4:2:0
Bit depth : 8 bits
Scan type : Progressive
Bits/(Pixel*Frame) : 0.052
Stream size : 1.49 GiB (91%)
Writing library : x264 core 92 r1510 33d382a
Encoding settings : cabac=1 / ref=2 / deblock=1:0:0 / analyse=0x3:0x113 / me=hex / subme=6 / psy=1 / psy_rd=1.00:0.00 / mixed_ref=1 / me_range=16 / chroma_me=1 / trellis=1 / 8x8dct=1 / cqm=0 / deadzone=21,11 / fast_pskip=1 / chroma_qp_offset=-2 / threads=3 / sliced_threads=0 / nr=0 / decimate=1 / interlaced=0 / constrained_intra=0 / bframes=3 / b_pyramid=2 / b_adapt=1 / b_bias=0 / direct=1 / wpredb=1 / wpredp=2 / keyint=250 / keyint_min=25 / scenecut=40 / intra_refresh=0 / rc_lookahead=30 / rc=crf / mbtree=1 / crf=24.0 / qcomp=0.60 / qpmin=10 / qpmax=51 / qpstep=4 / ip_ratio=1.40 / aq=1:1.00
Language : English

Audio
ID : 2
Format : MPEG Audio
Format version : Version 1
Format profile : Layer 2
Codec ID : A_MPEG/L2
Codec ID/Hint : MP2
Duration : 1h 31mn
Bit rate mode : Constant
Bit rate : 192 Kbps
Channel(s) : 2 channels
Sampling rate : 48.0 KHz
Video delay : 16ms
Stream size : 126 MiB (7%)
Title : В.Ташев
Language : Russian

_________________
Donate: Yandexmoney 410011809224246
Сбербанк 4274 3200 7566 3347
Profile PM
Ответить на тему