Australian Open 2011 / 3й круг / К.Малисс - Р.Федерер / X.Malisse - R.Federer / Спорт HD [21.01.2011, HD, 720p, RU, SAT]

Ответить на тему

Автор Сообщение

oleg_1954


Стаж: 11 лет

Сообщений: 10102

Откуда: Волгоград

Россия

Торрент-статистика

post 24-Янв-2011 21:52

Quote



Xavier Malisse - Roger Federer. Australian Open 2011. 3rd Round
Ксавье Малисс - Роджер Федерер. Открытый чемпионат Австралии 2011. 3й круг

Год выпуска: 2011
Вид спорта: Теннис
Участники: Ксавье Малисс - Роджер Федерер. Открытый чемпионат Австралии 2011. 3й круг
Комментарий: Профессиональный русский (А.Метревели)
Качество: SATRip
Формат: MKV
Видео кодек: H.264
Аудио кодек: AC3
Видео: MPEG4 Video H.264 1280x704 50.00 fps Bit rate 2849 Kbps Aspect Ratio 16:9
Аудио: Русский Dolby AC3 48000Hz 6 channels 448 Kbps
Исходный файл из раздачи
Автор "рипа" microlafe
01:59:35
General
Format : Matroska
File size : 2.75 GiB
Duration : 1h 59mn
Overall bit rate : 3 297 Kbps
Movie name : X.Malisse - R.Federer.AO 2011.R3
Encoded date : UTC 2011-01-24 17:15:58
Writing application : mkvmerge v4.0.0 ('The Stars were mine') built on Jun 6 2010 16:18:42
Writing library : libebml v1.0.0 + libmatroska v1.0.0

Video
ID : 1
Format : AVC
Format/Info : Advanced Video Codec
Format profile : High@L3.2
Format settings, CABAC : Yes
Format settings, ReFrames : 4 frames
Muxing mode : Container profile=Unknown@3.2
Codec ID : V_MPEG4/ISO/AVC
Duration : 1h 59mn
Bit rate : 2 783 Kbps
Width : 1 280 pixels
Height : 704 pixels
Display aspect ratio : 16:9
Original display aspect ratio : 16:9
Frame rate : 50.000 fps
Color space : YUV
Chroma subsampling : 4:2:0
Bit depth : 8 bits
Scan type : Progressive
Bits/(Pixel*Frame) : 0.062
Stream size : 2.32 GiB (84%)
Language : English

Audio
ID : 2
Format : AC-3
Format/Info : Audio Coding 3
Mode extension : CM (complete main)
Codec ID : A_AC3
Duration : 1h 59mn
Bit rate mode : Constant
Bit rate : 448 Kbps
Channel(s) : 6 channels
Channel positions : Front: L C R, Side: L R, LFE
Sampling rate : 48.0 KHz
Bit depth : 16 bits
Video delay : 4ms
Stream size : 383 MiB (14%)
Title : А.Метревели
Language : Russian

_________________
Donate: Yandexmoney 410011809224246
Сбербанк 4274 3200 7566 3347
Profile PM
Ответить на тему