Australian Open 2011 / 2й круг / Б.Йовановски - В.Звонарева / B.Jovanovski - V.Zvonareva / Спорт HD [20.01.2011, HD, 720p, RU, SAT]

Ответить на тему

Автор Сообщение

oleg_1954


Стаж: 11 лет

Сообщений: 10082

Откуда: Волгоград

Россия

Торрент-статистика

post 24-Янв-2011 23:28

Quote



Bojana Jovanovski - Vera Zvonareva. Australian Open 2011. 2nd Round
Бояна Йовановски - Вера Звонарева. Открытый чемпионат Австралии 2011. 2й круг

Год выпуска: 2011
Вид спорта: Теннис
Участники: Бояна Йовановски - Вера Звонарева. Открытый чемпионат Австралии 2011. 2й круг
Комментарий: Профессиональный русский (А.Дмитриева)
Качество: SATRip
Формат: MKV
Видео кодек: H.264
Аудио кодек: AC3
Видео: MPEG4 Video H.264 1280x704 50.00 fps Bit rate 2164 Kbps Aspect Ratio 16:9
Аудио: Русский Dolby AC3 48000Hz 6 channels 448 Kbps
Исходный файл из раздачи
Автор "рипа" microlafe
02:00:38
General
Format : Matroska
File size : 2.25 GiB
Duration : 2h 0mn
Overall bit rate : 2 665 Kbps
Movie name : B.Jovanovski - V.Zvonareva.AO 2011.R2
Encoded date : UTC 2011-01-24 18:48:12
Writing application : mkvmerge v4.0.0 ('The Stars were mine') built on Jun 6 2010 16:18:42
Writing library : libebml v1.0.0 + libmatroska v1.0.0

Video
ID : 1
Format : AVC
Format/Info : Advanced Video Codec
Format profile : High@L3.2
Format settings, CABAC : Yes
Format settings, ReFrames : 4 frames
Muxing mode : Container profile=Unknown@3.2
Codec ID : V_MPEG4/ISO/AVC
Duration : 2h 0mn
Bit rate : 2 164 Kbps
Width : 1 280 pixels
Height : 704 pixels
Display aspect ratio : 16:9
Original display aspect ratio : 16:9
Frame rate : 50.000 fps
Color space : YUV
Chroma subsampling : 4:2:0
Bit depth : 8 bits
Scan type : Progressive
Bits/(Pixel*Frame) : 0.048
Stream size : 1.82 GiB (81%)
Language : English

Audio
ID : 2
Format : AC-3
Format/Info : Audio Coding 3
Mode extension : CM (complete main)
Codec ID : A_AC3
Duration : 2h 0mn
Bit rate mode : Constant
Bit rate : 448 Kbps
Channel(s) : 6 channels
Channel positions : Front: L C R, Side: L R, LFE
Sampling rate : 48.0 KHz
Bit depth : 16 bits
Video delay : 20ms
Stream size : 387 MiB (17%)
Title : А.Дмитриева
Language : Russian

_________________
Donate: Yandexmoney 410011809224246
Сбербанк 4274 3200 7566 3347


Последний раз редактировалось: oleg_1954 (2012-08-28 16:07), всего редактировалось 2 раз(а)
Profile PM

ostapj


Стаж: 10 лет

Сообщений: 2

Торрент-статистика

post 26-Янв-2011 13:18 (спустя 1 день 13 часов)

Quote


спасибо
Profile PM
Ответить на тему