Australian Open 2011 / Четвертьфинал / Т.Бердых - Н.Джокович / T.Berdych - N.Djokovic / Спорт HD [25.01.2011, HD, 720p, RU, SAT]

Ответить на тему

Автор Сообщение

oleg_1954


Стаж: 11 лет

Сообщений: 10104

Откуда: Волгоград

Россия

Торрент-статистика

post 27-Янв-2011 23:34

Quote



Tomas Berdych - Novak Djokovic. Australian Open 2011. Quaterfinal
Томаш Бердых - Новак Джокович. Открытый чемпионат Австралии 2011. Четвертьфинал

Год выпуска: 2011
Вид спорта: Теннис
Участники: Томаш Бердых - Новак Джокович. Открытый чемпионат Австралии 2011. Четвертьфинал
Комментарий: Профессиональный русский (А.Михайлов, А.Шмурнов)
Качество: SATRip
Формат: MKV
Видео кодек: H.264
Аудио кодек: AC3
Видео: MPEG4 Video H.264 1280x704 50.00 fps Bit rate 2779 Kbps Aspect Ratio 16:9
Аудио: Русский Dolby AC3 48000Hz 6 channels 448 Kbps
Исходный файл из раздачи
Автор "рипа" lokolex
02:43:34
General
Format : Matroska
File size : 3.69 GiB
Duration : 2h 43mn
Overall bit rate : 3 227 Kbps
Movie name : T.Berdych - N.Djokovic.AO 2011.QF
Encoded date : UTC 2011-01-27 18:56:08
Writing application : mkvmerge v4.0.0 ('The Stars were mine') built on Jun 6 2010 16:18:42
Writing library : libebml v1.0.0 + libmatroska v1.0.0

Video
ID : 1
Format : AVC
Format/Info : Advanced Video Codec
Format profile : High@L3.2
Format settings, CABAC : Yes
Format settings, ReFrames : 4 frames
Muxing mode : Container profile=Unknown@3.2
Codec ID : V_MPEG4/ISO/AVC
Duration : 2h 43mn
Bit rate : 2 715 Kbps
Width : 1 280 pixels
Height : 704 pixels
Display aspect ratio : 16:9
Frame rate : 50.000 fps
Color space : YUV
Chroma subsampling : 4:2:0
Bit depth : 8 bits
Scan type : Progressive
Bits/(Pixel*Frame) : 0.060
Stream size : 3.10 GiB (84%)
Language : English

Audio
ID : 2
Format : AC-3
Format/Info : Audio Coding 3
Mode extension : CM (complete main)
Codec ID : A_AC3
Duration : 2h 43mn
Bit rate mode : Constant
Bit rate : 448 Kbps
Channel(s) : 6 channels
Channel positions : Front: L C R, Side: L R, LFE
Sampling rate : 48.0 KHz
Bit depth : 16 bits
Video delay : 24ms
Stream size : 524 MiB (14%)
Title : А.Михайлов, А.Шмурнов
Language : Russian

_________________
Donate: Yandexmoney 410011809224246
Сбербанк 4274 3200 7566 3347
Profile PM

suman mondal


Стаж: 9 лет 8 месяцев

Сообщений: 3

Откуда: calcutta,west bengal

Индия

Торрент-статистика

post 20-Мар-2012 21:11 (спустя 1 год 1 месяц)

Quote


Thanks oleg_1954.You are awesome.
Profile PM
Ответить на тему