Australian Open 2011 / 3й круг / А.Корне - К.Клийстерс / A.Cornet - K.Clijsters / Спорт HD [22.01.2011, HD, 720p, RU, SAT]

Ответить на тему

Автор Сообщение

oleg_1954


Стаж: 11 лет

Сообщений: 10082

Откуда: Волгоград

Россия

Торрент-статистика

post 02-Фев-2011 19:24

Quote



Alize Cornet - Kim Clijsters. Australian Open 2011. 3rd Round
Ализе Корне - Ким Клийстерс. Открытый чемпионат Австралии 2011. 3й круг

Год выпуска: 2011
Вид спорта: Теннис
Участники: Ализе Корне - Ким Клийстерс. Открытый чемпионат Австралии 2011. 3й круг
Комментарий: Профессиональный русский (А.Гришин)
Качество: SATRip
Формат: MKV
Видео кодек: H.264
Аудио кодек: AC3
Видео: MPEG4 Video H.264 1280x704 50.00 fps Bit rate 1900 Kbps Aspect Ratio 16:9
Аудио: Русский Dolby AC3 48000Hz 6 channels 448 Kbps
Исходный файл из раздачи
Автор "рипа" microlafe
01:40:27
General
Format : Matroska
File size : 1.68 GiB
Duration : 1h 40mn
Overall bit rate : 2 396 Kbps
Movie name : A.Cornet - K.Clijsters.AO 2011.R3
Encoded date : UTC 2011-02-01 17:07:37
Writing application : mkvmerge v4.0.0 ('The Stars were mine') built on Jun 6 2010 16:18:42
Writing library : libebml v1.0.0 + libmatroska v1.0.0

Video
ID : 1
Format : AVC
Format/Info : Advanced Video Codec
Format profile : High@L3.2
Format settings, CABAC : Yes
Format settings, ReFrames : 4 frames
Muxing mode : Container profile=Unknown@3.2
Codec ID : V_MPEG4/ISO/AVC
Duration : 1h 40mn
Bit rate : 1 900 Kbps
Width : 1 280 pixels
Height : 704 pixels
Display aspect ratio : 16:9
Frame rate : 50.000 fps
Color space : YUV
Chroma subsampling : 4:2:0
Bit depth : 8 bits
Scan type : Progressive
Bits/(Pixel*Frame) : 0.042
Stream size : 1.33 GiB (79%)
Language : English

Audio
ID : 2
Format : AC-3
Format/Info : Audio Coding 3
Mode extension : CM (complete main)
Codec ID : A_AC3
Duration : 1h 40mn
Bit rate mode : Constant
Bit rate : 448 Kbps
Channel(s) : 6 channels
Channel positions : Front: L C R, Side: L R, LFE
Sampling rate : 48.0 KHz
Bit depth : 16 bits
Video delay : 22ms
Stream size : 322 MiB (19%)
Title : А.Гришин
Language : Russian

_________________
Donate: Yandexmoney 410011809224246
Сбербанк 4274 3200 7566 3347
Profile PM
Ответить на тему