Australian Open 2011 / Полуфинал / К.Клийстерс - В.Звонарева / K.Clijsters - V.Zvonareva / Спорт HD [27.01.2011, HD, 720p, RU, SAT]

Ответить на тему

Автор Сообщение

oleg_1954


Стаж: 11 лет

Сообщений: 10094

Откуда: Волгоград

Россия

Торрент-статистика

post 04-Фев-2011 19:24

Quote



Kim Clijsters - Vera Zvonareva. Australian Open 2011. Semifinal
Ким Клийстерс - Вера Звонарева. Открытый чемпионат Австралии 2011. Полуфинал

Год выпуска: 2011
Вид спорта: Теннис
Участники: Ким Клийстерс - Вера Звонарева. Открытый чемпионат Австралии 2011. Полуфинал
Комментарий: Профессиональный русский (А.Метревели, А.Дмитриева)
Качество: SATRip
Формат: MKV
Видео кодек: H.264
Аудио кодек: AC3
Видео: MPEG4 Video H.264 1280x704 50.00 fps Bit rate 2349 Kbps Aspect Ratio 16:9
Аудио: Русский Dolby AC3 48000Hz 6 channels 448 Kbps
Исходный файл из раздачи
Автор "рипа" spika-ol
01:27:05
General
Format : Matroska
File size : 1.74 GiB
Duration : 1h 27mn
Overall bit rate : 2 854 Kbps
Movie name : K.Clijsters - V.Zvonareva.AO 2011.SF
Encoded date : UTC 2011-02-04 11:38:30
Writing application : mkvmerge v4.0.0 ('The Stars were mine') built on Jun 6 2010 16:18:42
Writing library : libebml v1.0.0 + libmatroska v1.0.0

Video
ID : 1
Format : AVC
Format/Info : Advanced Video Codec
Format profile : High@L3.2
Format settings, CABAC : Yes
Format settings, ReFrames : 4 frames
Muxing mode : Container profile=Unknown@3.2
Codec ID : V_MPEG4/ISO/AVC
Duration : 1h 27mn
Bit rate : 2 349 Kbps
Width : 1 280 pixels
Height : 704 pixels
Display aspect ratio : 16:9
Frame rate : 50.000 fps
Color space : YUV
Chroma subsampling : 4:2:0
Bit depth : 8 bits
Scan type : Progressive
Bits/(Pixel*Frame) : 0.052
Stream size : 1.43 GiB (82%)
Language : English

Audio
ID : 2
Format : AC-3
Format/Info : Audio Coding 3
Mode extension : CM (complete main)
Codec ID : A_AC3
Duration : 1h 27mn
Bit rate mode : Constant
Bit rate : 448 Kbps
Channel(s) : 6 channels
Channel positions : Front: L C R, Side: L R, LFE
Sampling rate : 48.0 KHz
Bit depth : 16 bits
Video delay : 6ms
Stream size : 279 MiB (16%)
Title : А.Метревели, А.Дмитриева
Language : Russian

_________________
Donate: Yandexmoney 410011809224246
Сбербанк 4274 3200 7566 3347
Profile PM
Ответить на тему