Australian Open 2011 / Четвертьфинал / С.Вавринка - Р.Федерер / S.Wawrinka - R.Federer / Спорт HD [25.01.2011, HD, 720p, RU]

Ответить на тему

Автор Сообщение

oleg_1954


Стаж: 11 лет

Сообщений: 10092

Откуда: Волгоград

Россия

Торрент-статистика

post 05-Фев-2011 13:15

Quote



Stanislas Wawrinka - Roger Federer. Australian Open 2011. Quaterfinal
Станислас Вавринка - Роджер Федерер. Открытый чемпионат Австралии 2011. Четвертьфинал

Год выпуска: 2011
Вид спорта: Теннис
Участники: С.Вавринка - Р.Федерер. Открытый чемпионат Австралии 2011. Четвертьфинал
Комментарий: Профессиональный русский (А.Метревели)
Качество: SATRip Формат: MKV
Видео кодек: H.264 Аудио кодек: AC3
Видео: MPEG4 Video H.264 1280x704 25.00 fps Bit rate 2825 Kbps Aspect Ratio 16:9
Аудио: Русский Dolby AC3 48000Hz 6 channels 448 Kbps
Исходный файл из раздачи
Автор "рипа" lokolex
02:07:04
General
Format : Matroska
File size : 2.96 GiB
Duration : 2h 7mn
Overall bit rate : 3 339 Kbps
Movie name : S.Wawrinka - R.Federer.AO 2011.QF
Encoded date : UTC 2011-02-04 15:43:04
Writing application : mkvmerge v4.0.0 ('The Stars were mine') built on Jun 6 2010 16:18:42
Writing library : libebml v1.0.0 + libmatroska v1.0.0

Video
ID : 1
Format : AVC
Format/Info : Advanced Video Codec
Format profile : High@L3.2
Format settings, CABAC : Yes
Format settings, ReFrames : 4 frames
Muxing mode : Container profile=Unknown@3.2
Codec ID : V_MPEG4/ISO/AVC
Duration : 2h 7mn
Bit rate : 2 825 Kbps
Width : 1 280 pixels
Height : 704 pixels
Display aspect ratio : 16:9
Frame rate : 50.000 fps
Color space : YUV
Chroma subsampling : 4:2:0
Bit depth : 8 bits
Scan type : Progressive
Bits/(Pixel*Frame) : 0.063
Stream size : 2.51 GiB (85%)
Language : English

Audio
ID : 2
Format : AC-3
Format/Info : Audio Coding 3
Mode extension : CM (complete main)
Codec ID : A_AC3
Duration : 2h 7mn
Bit rate mode : Constant
Bit rate : 448 Kbps
Channel(s) : 6 channels
Channel positions : Front: L C R, Side: L R, LFE
Sampling rate : 48.0 KHz
Bit depth : 16 bits
Video delay : 12ms
Stream size : 407 MiB (13%)
Title : А.Метревели
Language : Russian

_________________
Donate: Yandexmoney 410011809224246
Сбербанк 4274 3200 7566 3347


Последний раз редактировалось: oleg_1954 (2015-12-07 09:36), всего редактировалось 2 раз(а)
Profile PM

vp1117


Стаж: 8 лет

Сообщений: 102

Россия

Торрент-статистика

post 07-Янв-2014 20:34 (спустя 2 года 11 месяцев)

Quote


Интересный матч, а раздача совсем умерла? Или есть кто кто может поделиться?
Profile PM

vp1117


Стаж: 8 лет

Сообщений: 102

Россия

Торрент-статистика

post 05-Дек-2015 08:35 (спустя 1 год 10 месяцев)

Quote


Я стою на раздаче. Как раздача могла сдохнуть??
Profile PM
Ответить на тему