Australian Open 2011 / Финал / Ю-Я.Чань, П.Хэнли - К.Среботник, Д.Нестор / Y-J.Chan, P.Hanley - K.Srebotnik, D.Nestor / Спорт HD [30.01.2011, HD, 720p, RU, SAT]

Ответить на тему

Автор Сообщение

oleg_1954


Стаж: 11 лет

Сообщений: 10100

Откуда: Волгоград

Россия

Торрент-статистика

post 06-Фев-2011 13:56

Quote



Yung-Jan Chan, Paul Hanley - Katarina Srebotnik, Daniel Nestor. Australian Open 2011. Final
Юн-Янь Чань, Пол Хэнли - Катарина Среботник, Даниэль Нестор. Открытый чемпионат Австралии 2011. Финал

Год выпуска: 2011
Вид спорта: Теннис
Участники: Ю-Я.Чань, П.Хэнли - К.Среботник, Д.Нестор. Открытый чемпионат Австралии 2011. Финал
Комментарий: Профессиональный русский (А.Шмурнов, А.Михайлов)
Качество: SATRip Формат: MKV
Видео кодек: H.264 Аудио кодек: AC3
Видео: Видео: MPEG4 Video H.264 1280x704 50.00 fps Bit rate 3705 Kbps Aspect Ratio 16:9
Аудио: Русский Dolby AC3 48000Hz 6 channels 448 Kbps
Исходный файл из раздачи
Автор "рипа" lokolex
01:33:49
General
Format : Matroska
File size : 2.78 GiB
Duration : 1h 33mn
Overall bit rate : 4 237 Kbps
Movie name : Y-J.Chan, P.Hanley - K.Srebotnik, D.Nestor.AO 2011.Final
Encoded date : UTC 2011-02-06 08:05:20
Writing application : mkvmerge v4.0.0 ('The Stars were mine') built on Jun 6 2010 16:18:42
Writing library : libebml v1.0.0 + libmatroska v1.0.0

Video
ID : 1
Format : AVC
Format/Info : Advanced Video Codec
Format profile : High@L3.2
Format settings, CABAC : Yes
Format settings, ReFrames : 4 frames
Muxing mode : Container profile=Unknown@3.2
Codec ID : V_MPEG4/ISO/AVC
Duration : 1h 33mn
Bit rate : 3 705 Kbps
Width : 1 280 pixels
Height : 704 pixels
Display aspect ratio : 16:9
Frame rate : 50.000 fps
Color space : YUV
Chroma subsampling : 4:2:0
Bit depth : 8 bits
Scan type : Progressive
Bits/(Pixel*Frame) : 0.082
Stream size : 2.43 GiB (87%)
Language : English

Audio
ID : 2
Format : AC-3
Format/Info : Audio Coding 3
Mode extension : CM (complete main)
Codec ID : A_AC3
Duration : 1h 33mn
Bit rate mode : Constant
Bit rate : 448 Kbps
Channel(s) : 6 channels
Channel positions : Front: L C R, Side: L R, LFE
Sampling rate : 48.0 KHz
Bit depth : 16 bits
Video delay : 18ms
Stream size : 301 MiB (11%)
Title : А.Шмурнов, А.Михайлов
Language : Russian

_________________
Donate: Yandexmoney 410011809224246
Сбербанк 4274 3200 7566 3347
Profile PM
Ответить на тему