Davis Cup 2010 Final / V.Troicki - M.Llodra / Кубок Дэвиса 2010 Финал / В.Троицки - М.Ллодра [05.12.2010, HD, 720, H.264, RU, FR, SAT]

Davis Cup 2010 Final / V.Troicki - M.Llodra / Кубок Дэвиса 2010 Финал / В.Троицки - М.Ллодра [05.12.2010, HD, 720, H.264, RU, FR, SAT]

Ответить на тему

Автор Сообщение

oleg_1954


Стаж: 12 лет

Сообщений: 10598

Откуда: Волгоград

Россия

Торрент-статистика

post 10-Дек-2010 19:45

Quote


Viktor Troicki - Michael Llodra. Davis Cup 2010. Final
Виктор Троицки - Мишель Ллодра. Кубок Дэвиса 2010. Финал

Год выпуска: 2010
Вид спорта: Теннис
Участники: Виктор Троицки - Мишель Ллодра. Кубок Дэвиса 2010. Финал
Комментарий: Профессиональный 1.Русский (А.Метревели, А.Дмитриева) 2.Французский
Качество: SATRip
Формат: MKV
Видео кодек: H.264
Аудио кодек: AC3
Видео: MPEG4 Video H.264 1280x720 50.00 fps Bit rate 2498 Kbps Aspect Ratio 16:9
Аудио 1: Русский AC3 48000 Hz 6 channels 448 Kbps
Аудио 2: Французский AC3 48000 Hz stereo 192 Kbps
03:00:14
Исходный файл из раздачи:
Davis Cup 2010 / Финал / Третий день / Матч 5 / Троицки - Ллодра / Troicki - Llodra / НТВ+ [05.12.2010, HD, 1080i, RU, SAT]
автор "рипа" spika-ol
Французская звуковая дорожка из раздачи с другого "трекера"
Комментарий c 3 й минуты. В рекламных вставках - звук с канала "НТВ+"
In the missing fragments - the sound of the channel "NTV+"
General
Format : Matroska
File size : 4.03 GiB
Duration : 3h 0mn
Overall bit rate : 3 202 Kbps
Movie name : V.Troicki - M.Llodra.Davis Cup 2010.Final
Encoded date : UTC 2010-12-10 11:41:16
Writing application : mkvmerge v4.0.0 ('The Stars were mine') built on Jun 6 2010 16:18:42
Writing library : libebml v1.0.0 + libmatroska v1.0.0

Video
ID : 1
Format : AVC
Format/Info : Advanced Video Codec
Format profile : High@L3.2
Format settings, CABAC : Yes
Format settings, ReFrames : 5 frames
Muxing mode : Container profile=Unknown@3.2
Codec ID : V_MPEG4/ISO/AVC
Duration : 3h 0mn
Bit rate : 2 498 Kbps
Width : 1 280 pixels
Height : 720 pixels
Display aspect ratio : 16:9
Frame rate : 50.000 fps
Color space : YUV
Chroma subsampling : 4:2:0
Bit depth : 8 bits
Scan type : Progressive
Bits/(Pixel*Frame) : 0.054
Stream size : 3.14 GiB (78%)
Language : <a href="http://cityadspix.com/tsclick-GCQRILZK-SLZKVXTQ?&am...kw=English" target="_blank" alt="mba.ru" title="mba.ru" style="">English</a>

Audio #1
ID : 2
Format : AC-3
Format/Info : Audio Coding 3
Mode extension : CM (complete main)
Codec ID : A_AC3
Duration : 3h 0mn
Bit rate mode : Constant
Bit rate : 448 Kbps
Channel(s) : 6 channels
Channel positions : Front: L C R, Side: L R, LFE
Sampling rate : 48.0 KHz
Bit depth : 16 bits
Video delay : 30ms
Stream size : 578 MiB (14%)
Title : А.Метревели, А.Дмитриева
Language : Russian

Audio #2
ID : 3
Format : AC-3
Format/Info : Audio Coding 3
Mode extension : CM (complete main)
Codec ID : A_AC3
Duration : 3h 0mn
Bit rate mode : Constant
Bit rate : 192 Kbps
Channel(s) : 2 channels
Channel positions : Front: L R
Sampling rate : 48.0 KHz
Bit depth : 16 bits
Stream size : 248 MiB (6%)
Language : French

Menu
00:07:51.800 : en:1 Set
00:47:46.160 : en:2 Set
01:39:16.080 : en:3 Set
02:19:07.120 : en:Match Point
02:23:59.600 : en:Interview 1
02:27:42.400 : en:Interview 2
02:47:46.200 : en:Ceremony


Последний раз редактировалось: oleg_1954 (2014-11-09 11:50), всего редактировалось 4 раз(а)
Profile PM

bluesky2156


Стаж: 12 лет

Сообщений: 5

Албания

Торрент-статистика

post 28-Янв-2011 06:49 (спустя 1 месяц 17 дней)

Quote


thanks a lot
Profile PM
Ответить на тему