Shanghai 2009 / Полуфинал / Рафаэль Надаль - Фелисиано Лопес / Rafael Nadal - Feliciano Lopez / Sky Sports [17.10.2009, HD, 720p, RU, EN, SAT]

Shanghai 2009 / Полуфинал / Рафаэль Надаль - Фелисиано Лопес / Rafael Nadal - Feliciano Lopez / Sky Sports [17.10.2009, HD, 720p, RU, EN, SAT]

Ответить на тему

Автор Сообщение

oleg_1954


Стаж: 12 лет

Сообщений: 10601

Откуда: Волгоград

Россия

Торрент-статистика

post 23-Июн-2011 18:22

Quote


Rafael Nadal - Feliciano Lopez. Shanghai 2009. Semifinal
Рафаэль Надаль - Фелисиано Лопес. Шанхай 2009. Полуфинал

Год выпуска: 2009
Вид спорта: Теннис
Участники: Рафаэль Надаль - Фелисиано Лопес. Шанхай 2009. Полуфинал
Комментарий: Профессиональный 1.Русский (А.Шмурнов) 2.Английский
Качество: SATRip
Формат: MKV
Видео кодек: H.264
Аудио кодек: AC3
Видео: MPEG4 Video H.264 1264x704 25.000 fps Bitrate 1929 Kbps Aspect Ratio 16:9
Аудио 1: Русский AC3 48000 Hz stereo 192 Kbps
Аудио 2: Английский AC3 48000 Hz stereo 192 Kbps
00:59:23
Файл скачан с другого "трекера", автор "рипа" неизвестен
Русская звуковая дорожка из раздачи SlesarЬ
General
Format : Matroska
File size : 1.00 GiB
Duration : 59mn 23s
Overall bit rate : 2 420 Kbps
Movie name : R.Nadal - F.Lopez.Shanghai 2009.SF.HDTV
Encoded date : UTC 2009-11-02 08:41:17
Writing application : mkvmerge v2.9.7 ('Tenderness') built on Jul 1 2009 18:43:35
Writing library : libebml v0.7.7 + libmatroska v0.8.1

Video
ID : 1
Format : AVC
Format/Info : Advanced Video Codec
Format profile : High@L3.1
Format settings, CABAC : Yes
Format settings, ReFrames : 3 frames
Muxing mode : Container profile=Unknown@3.1
Codec ID : V_MPEG4/ISO/AVC
Duration : 59mn 23s
Bit rate : 2 032 Kbps
Width : 1 264 pixels
Height : 704 pixels
Display aspect ratio : 16:9
Original display aspect ratio : 16:9
Frame rate : 25.000 fps
Color space : YUV
Chroma subsampling : 4:2:0
Bit depth : 8 bits
Scan type : Progressive
Bits/(Pixel*Frame) : 0.091
Stream size : 844 MiB (82%)
Writing library : x264 core 67 r1136 3f9ba82
Encoding settings : cabac=1 / ref=3 / deblock=1:-1:-1 / analyse=0x3:0x133 / me=hex / subme=5 / psy_rd=0.0:0.0 / mixed_ref=0 / me_range=16 / chroma_me=1 / trellis=0 / 8x8dct=1 / cqm=0 / deadzone=21,11 / chroma_qp_offset=0 / threads=6 / nr=0 / decimate=1 / mbaff=0 / bframes=16 / b_pyramid=0 / b_adapt=1 / b_bias=0 / direct=3 / wpredb=1 / keyint=250 / keyint_min=25 / scenecut=40 / rc=2pass / bitrate=2032 / ratetol=1.0 / qcomp=0.60 / qpmin=10 / qpmax=51 / qpstep=4 / cplxblur=20.0 / qblur=0.5 / ip_ratio=1.40 / pb_ratio=1.30 / aq=1:1.00
Language : English

Audio #1
ID : 2
Format : AC-3
Format/Info : Audio Coding 3
Mode extension : CM (complete main)
Codec ID : A_AC3
Duration : 59mn 23s
Bit rate mode : Constant
Bit rate : 192 Kbps
Channel(s) : 2 channels
Channel positions : Front: L R
Sampling rate : 48.0 KHz
Bit depth : 16 bits
Stream size : 81.6 MiB (8%)
Title : Александр Шмурнов
Language : Russian

Audio #2
ID : 3
Format : AC-3
Format/Info : Audio Coding 3
Mode extension : CM (complete main)
Codec ID : A_AC3
Duration : 59mn 23s
Bit rate mode : Constant
Bit rate : 192 Kbps
Channel(s) : 2 channels
Channel positions : Front: L R
Sampling rate : 48.0 KHz
Bit depth : 16 bits
Stream size : 81.6 MiB (8%)
Language : English

_________________
Donate: yoomoney 410011809224246
Sberbank 4274 3200 7566 3347
Profile PM

SUVRO CHAKRABORTY


Стаж: 10 лет

Сообщений: 11

Индия

Торрент-статистика

post 25-Дек-2012 22:59 (спустя 1 год 6 месяцев)

Quote


Kindly someone reseed this for a while.Thank you.

_________________
I AM AN AVID TENNIS FAN.WANT TO SEE MATCHES OF PREVIOUS YEARS.
Profile PM

xXHotSpotXx


Стаж: 10 лет

Сообщений: 15

Откуда: Deutschland

Германия

Торрент-статистика

post 28-Мар-2013 01:01 (спустя 3 месяца 2 дня)

Quote


WOuld be so great if anyone could reseed this!! Please!

_________________
Emil M.
Profile PM
Ответить на тему