Houston 2004 / Полуфинал / Р.Федерер - М.Сафин / R.Federer - M.Safin / ESPN2 [20.11.2004, SD, XviD, RU, EN, TV]

Houston 2004 / Полуфинал / Р.Федерер - М.Сафин / R.Federer - M.Safin / ESPN2 [20.11.2004, SD, XviD, RU, EN, TV]

Ответить на тему

Автор Сообщение

oleg_1954


Стаж: 12 лет

Сообщений: 10601

Откуда: Волгоград

Россия

Торрент-статистика

post 01-Авг-2011 18:36

Quote


Roger Federer - Marat Safin. Houston 2004. Semifinal
Роджер Федерер - Марат Сафин. Хьюстон 2004. Полуфинал

Год выпуска: 2004
Вид спорта: Теннис
Участники: Роджер Федерер - Марат Сафин. Хьюстон 2004. Полуфинал
Комментарий: Профессиональный 1.Русский (М.Семин) 2.Английский (P.McEnroe, C.Drysdale, M.Carillo)
Качество: TVRip
Формат: AVI
Видео кодек: XviD
Аудио кодек: MP3
Видео: MPEG4 Video XviD 464x352 29.97 fps Bit rate 1171 Kbps Aspect Ratio 4:3
Аудио 1: Русский MP3 48000 Hz stereo 128 Kbps
Аудио 2: Английский MP3 48000 Hz stereo 128 Kbps
Доп.инфо: Русский комментарий с 8 й минуты
01:52:47
Файл скачан с файлообменника, автор "рипа" неизвестен
Русская звуковая дорожка - запись с канала "Спорт"
В пропущенных фрагментах - звук с канала "ESPN2"

Впервые в Хьюстоне зрители стоя аплодировали проигравшему теннисисту, а потом полчаса не отпускали его без автографа. Концовку второго сета все, кто ее видел, будут помнить еще очень долго. Подумать только: тай-брейк продолжался 25 минут, на протяжении которых соперники 6 раз менялись сторонами и провели 38 розыгрышей! Причем несмотря на высочайшее психологическое напряжение, качество игры обоих теннисистов было потрясающим! В итоге этот тай-брейк стал повторением рекорда по продолжительности в мужском одиночном разряде за всю историю тенниса. Ранее такой счет был зафиксирован в 1973 году на Уимблдоне в матче Бьорна Борга и Премжита Лалла, а также в 1993 году на US Open во встрече Горана Иванишевича и Даниэля Нестора.
- Фантастика! - делился Сафин своими ощущениями после матча. - Я получил удовольствие прежде всего от самой игры. На тай-брейке я показал, возможно, лучший теннис в своей жизни, но Роджер был великолепен.
Не оставил без комментария концовку встречи и сам Федерер.
- Ради таких встреч мы все и играем в теннис, - сказал швейцарец. - Никогда прежде мне не доводилось играть столь длинные тай-брейки, а потому я рад уже тому, что сумел сегодня испытать новые для себя ощущения.
General
Format : AVI
Format/Info : Audio Video Interleave
File size : 1.14 GiB
Duration : 1h 52mn
Overall bit rate : 1 444 Kbps
Writing application : VirtualDubMod 1.5.10.2 (build 2540/release)
Writing library : VirtualDubMod build 2540/release

Video
ID : 0
Format : MPEG-4 Visual
Format profile : Advanced Simple@L5
Format settings, BVOP : 1
Format settings, QPel : No
Format settings, GMC : No warppoints
Format settings, Matrix : Custom
Codec ID : XVID
Codec ID/Hint : XviD
Duration : 1h 52mn
Bit rate : 1 171 Kbps
Width : 464 pixels
Height : 352 pixels
Display aspect ratio : 4:3
Frame rate : 29.970 fps
Color space : YUV
Chroma subsampling : 4:2:0
Bit depth : 8 bits
Scan type : Progressive
Compression mode : Lossy
Bits/(Pixel*Frame) : 0.239
Stream size : 944 MiB (81%)
Writing library : XviD 1.2.0.dev47 (UTC 2006-11-01)

Audio #1
ID : 1
Format : MPEG Audio
Format version : Version 1
Format profile : Layer 3
Codec ID : 55
Codec ID/Hint : MP3
Duration : 1h 52mn
Bit rate mode : Constant
Bit rate : 128 Kbps
Channel(s) : 2 channels
Sampling rate : 48.0 KHz
Compression mode : Lossy
Stream size : 103 MiB (9%)
Alignment : Aligned on interleaves
Interleave, duration : 33 ms (1.00 video frame)
Interleave, preload duration : 504 ms

Audio #2
ID : 2
Format : MPEG Audio
Format version : Version 1
Format profile : Layer 3
Codec ID : 55
Codec ID/Hint : MP3
Duration : 1h 52mn
Bit rate mode : Constant
Bit rate : 128 Kbps
Channel(s) : 2 channels
Sampling rate : 48.0 KHz
Compression mode : Lossy
Stream size : 103 MiB (9%)
Alignment : Aligned on interleaves
Interleave, duration : 33 ms (1.00 video frame)
Interleave, preload duration : 504 ms

_________________
Donate: yoomoney 410011809224246
Sberbank 4274 3200 7566 3347


Последний раз редактировалось: oleg_1954 (2020-12-12 11:28), всего редактировалось 3 раз(а)
Profile PM

LeBron


Стаж: 12 лет

Сообщений: 1018

Откуда: г. Брянск

Россия

Торрент-статистика

post 01-Авг-2011 18:39 (спустя 2 минуты)

Quote


oleg_1954
спасибо, если есть возможность, то выкладывайте побольше матчей с участием Марата

_________________
Profile PM

7ime 7raveller


Стаж: 11 лет

Сообщений: 28

Россия

Торрент-статистика

post 02-Авг-2011 00:02 (спустя 5 часов)

Quote


oleg_1954

LeBron писал(а):

то выкладывайте побольше матчей
ага и вообще матчи мастеров прошлых лет )
Profile PM
Ответить на тему