Wimbledon 2004 / Финал / Р.Федерер - Э.Роддик / R.Federer - A.Roddick / Sky Sport [04.07.2004, SD, XviD, RU, IT, EN, TV]

Wimbledon 2004 / Финал / Р.Федерер - Э.Роддик / R.Federer - A.Roddick / Sky Sport [04.07.2004, SD, XviD, RU, IT, EN, TV]

Ответить на тему

Автор Сообщение

oleg_1954


Стаж: 12 лет

Сообщений: 10606

Откуда: Волгоград

Россия

Торрент-статистика

post 04-Авг-2011 17:45

Quote


Roger Federer - Andy Roddick. Wimbledon 2004. Final
Роджер Федерер - Энди Роддик. Уимблдон 2004. Финал

Год выпуска: 2004 Вид спорта: Теннис
Участники: Роджер Федерер - Энди Роддик. Уимблдон 2004. Финал
Комментарий: Профессиональный 1.Русский (А.Метревели, А.Дмитриева) 2.Итальянский 3.Английский (J.McEnroe, T.Robinson)
Качество: TVRip Формат: AVI
Видео кодек: XviD Аудио кодек: MP3
Видео: MPEG4 Video XviD 640x480 25.00 fps Bit rate 1024 Kbps Aspect Ratio 4:3
Аудио 1: Русский MP3 48000 Hz stereo 128 Kbps
Аудио 2: Итальянский MP3 44100 Hz stereo 128 Kbps
Аудио 3: Английский MP3 48000 Hz stereo 128 Kbps
Доп.инфо: русский комментарий с 28 й минуты, нет русского комментария: 70-103 мин.
02:19:00
Русская звуковая дорожка - запись с канала "НТВ"
В пропущенных фрагментах - звук с канала "Sky Sport"
Английская звуковая дорожка из раздачи с другого "трекера"
В пропущенных фрагментах - звук с канала "Sky Sport"
General
Format : AVI
Format/Info : Audio Video Interleave
File size : 1.39 GiB
Duration : 2h 19mn
Overall bit rate : 1 428 Kbps
Movie name : R.Federer - A.Roddick.Wimbledon 2004.Final
Writing application : VirtualDubMod 1.5.10.2 (build 2540/release)
Writing library : VirtualDubMod build 2540/release
Copyright : http://rgfootball.net

Video
ID : 0
Format : MPEG-4 Visual
Format profile : Simple@L3
Format settings, BVOP : No
Format settings, QPel : No
Format settings, GMC : No warppoints
Format settings, Matrix : Default (H.263)
Codec ID : XVID
Codec ID/Hint : XviD
Duration : 2h 19mn
Bit rate : 1 024 Kbps
Width : 640 pixels
Height : 480 pixels
Display aspect ratio : 4:3
Frame rate : 25.000 fps
Color space : YUV
Chroma subsampling : 4:2:0
Bit depth : 8 bits
Scan type : Progressive
Compression mode : Lossy
Bits/(Pixel*Frame) : 0.133
Stream size : 1 018 MiB (72%)
Title : R.Federer - A.Roddick.Wimbledon 2004.Final
Writing library : XviD 1.1.2 (UTC 2006-11-01)

Audio #1
ID : 1
Format : MPEG Audio
Format version : Version 1
Format profile : Layer 3
Codec ID : 55
Codec ID/Hint : MP3
Duration : 2h 19mn
Bit rate mode : Constant
Bit rate : 128 Kbps
Channel(s) : 2 channels
Sampling rate : 48.0 KHz
Compression mode : Lossy
Stream size : 127 MiB (9%)
Alignment : Aligned on interleaves
Interleave, duration : 40 ms (1.00 video frame)
Interleave, preload duration : 504 ms

Audio #2
ID : 2
Format : MPEG Audio
Format version : Version 1
Format profile : Layer 3
Codec ID : 55
Codec ID/Hint : MP3
Duration : 2h 19mn
Bit rate mode : Constant
Bit rate : 128 Kbps
Channel(s) : 2 channels
Sampling rate : 44.1 KHz
Compression mode : Lossy
Stream size : 127 MiB (9%)
Alignment : Split accross interleaves
Interleave, duration : 40 ms (1.00 video frame)
Interleave, preload duration : 500 ms

Audio #3
ID : 3
Format : MPEG Audio
Format version : Version 1
Format profile : Layer 3
Codec ID : 55
Codec ID/Hint : MP3
Duration : 2h 19mn
Bit rate mode : Constant
Bit rate : 128 Kbps
Channel(s) : 2 channels
Sampling rate : 48.0 KHz
Compression mode : Lossy
Stream size : 127 MiB (9%)
Alignment : Aligned on interleaves
Interleave, duration : 40 ms (1.00 video frame)
Interleave, preload duration : 504 ms

_________________
Donate: yoomoney 410011809224246
Sberbank 4274 3200 7566 3347


Последний раз редактировалось: oleg_1954 (2019-02-04 14:49), всего редактировалось 5 раз(а)
Profile PM

kfjkghjgjh


Стаж: 12 лет

Сообщений: 79

Россия

Торрент-статистика

post 04-Авг-2011 22:08 (спустя 4 часа)

Quote


любителям оч агрессивного тенниса рекомендуется!!! СПАСИБО!!
Profile PM

fedfan


Стаж: 12 лет

Сообщений: 35

Россия

Торрент-статистика

post 20-Окт-2014 00:05 (спустя 3 года 2 месяца)

Quote


Пожалуйста, станьте кто-нибудь на раздачу. Спасибо!
Profile PM
Ответить на тему