Barcelona 2009 / 1/4 финала / Фернандо Гонсалес - Фернандо Вердаско / Fernando Gonzalez - Fernando Verdasco / НТВ+ [24.04.2009, MPEG2, 576i, 25 fps, RUS, IPTV]

Barcelona 2009 / 1/4 финала / Фернандо Гонсалес - Фернандо Вердаско / Fernando Gonzalez - Fernando Verdasco / НТВ+ [24.04.2009, MPEG2, 576i, 25 fps, RUS, IPTV]

Ответить на тему

Автор Сообщение

oleg_1954


Стаж: 12 лет

Сообщений: 10598

Откуда: Волгоград

Россия

Торрент-статистика

post 01-Дек-2018 16:15

Quote


Fernando Gonzalez - Fernando Verdasco. Barcelona 2009. Quaterfinal
Фернандо Гонсалес - Фернандо Вердаско. Барселона 2009. 1/4 финала

Год выпуска: 24.04.2009 19:00 МСК
Вид спорта: Теннис
Участники: Фернандо Гонсалес - Фернандо Вердаско. Барселона 2009. 1/4 финала
Комментарий: Профессиональный Русский (А.Никифоров)
Качество: IPTVRip
Формат: MKV
Видео кодек: MPEG2
Аудио кодек: MP2
Видео: MPEG2 Video 720x576 25 fps Bit rate 2824 Kbps Aspect Ratio 16:9
Аудио: Русский MP2 48000 Hz stereo 192 Kbps
Спасибо leomessi00 за предоставленный исходный файл
02:28:53
General
Format : Matroska
Format version : Version 4 / Version 2
File size : 3.20 GiB
Duration : 2 h 28 min
Overall bit rate mode : Variable
Overall bit rate : 3 078 kb/s
Movie name : F.Gonzalez - F.Verdasco.Barcelona 2009.QF
Encoded date : UTC 2010-02-22 21:41:31
Writing application : mkvmerge v5.9.0 ('On The Loose') built on Dec 9 2012 15:37:01
Writing library : libebml v1.3.0 + libmatroska v1.4.0

Video
ID : 1
Format : MPEG Video
Format version : Version 2
Format profile : Main@Main
Format settings : CustomMatrix
Format settings, BVOP : No
Format settings, Matrix : Custom
Format settings, picture struc : Frame
Codec ID : V_MPEG2
Codec ID/Info : MPEG 1 or 2 Video
Duration : 2 h 28 min
Bit rate mode : Variable
Bit rate : 2 824 kb/s
Maximum bit rate : 15.0 Mb/s
Width : 720 pixels
Height : 576 pixels
Display aspect ratio : 16:9
Frame rate mode : Constant
Frame rate : 25.000 FPS
Standard : PAL
Color space : YUV
Chroma subsampling : 4:2:0
Bit depth : 8 bits
Scan type : Interlaced
Scan order : Top Field First
Compression mode : Lossy
Bits/(Pixel*Frame) : 0.272
Time code of first frame : 00:00:00:00
Time code source : Group of pictures header
Stream size : 2.94 GiB (92%)
Language : English
Default : Yes
Forced : No

Audio
ID : 2
Format : MPEG Audio
Format version : Version 1
Format profile : Layer 2
Codec ID : A_MPEG/L2
Codec ID/Hint : MP2
Duration : 2 h 28 min
Bit rate mode : Constant
Bit rate : 192 kb/s
Channel(s) : 2 channels
Sampling rate : 48.0 kHz
Compression mode : Lossy
Delay relative to video : 7 ms
Stream size : 204 MiB (6%)
Title : А.Никифоров
Language : Russian
Default : Yes
Forced : No

_________________
Donate: yoomoney 410011809224246
Sberbank 4274 3200 7566 3347
Profile PM
Ответить на тему