US Open 2010 / Финал / Р.Надаль - Н.Джокович / R.Nadal - N.Djokovic / Спорт HD [13.09.2010, HD, 720p, RU, SAT]

US Open 2010 / Финал / Р.Надаль - Н.Джокович / R.Nadal - N.Djokovic / Спорт HD [13.09.2010, HD, 720p, RU, SAT]

Ответить на тему

Автор Сообщение

oleg_1954


Стаж: 12 лет

Сообщений: 10606

Откуда: Волгоград

Россия

Торрент-статистика

post 22-Сен-2011 18:09

Quote


Rafael Nadal - Novak Djokovic. US Open 2010. Final
Рафаэль Надаль - Новак Джокович. Открытый чемпионат США 2010. Финал

Год выпуска: 2011
Вид спорта: Теннис
Участники: Рафаэль Надаль - Новак Джокович. Открытый чемпионат США 2010. Финал
Комментарий: Профессиональный русский (А.Метревели)
Качество: SATRip
Формат: MKV
Видео кодек: H.264
Аудио кодек: AC3
Видео: MPEG4 Video H.264 1280x720 50.00 fps Bit rate 3316 Kbps Aspect Ratio 16:9
Аудио: Русский Dolby AC3 48000 Hz 6 Channels 448 Kbps
Исходный файл из раздачи Wal-2008
04:35:52=02:47:32+01:48:21
General
Format : Matroska
File size : 4.26 GiB
Duration : 2h 47mn
Overall bit rate : 3 642 Kbps
Movie name : R.Nadal - N.Djokovic. US Open 2010.Final
Encoded date : UTC 2010-09-29 16:49:35
Writing application : mkvmerge v2.4.1 ('Use Me') built on Dec 5 2008 15:43:32
Writing library : libebml v0.7.7 + libmatroska v0.8.1

Video
ID : 1
Format : AVC
Format/Info : Advanced Video Codec
Format profile : High@L3.2
Format settings, CABAC : Yes
Format settings, ReFrames : 4 frames
Codec ID : V_MPEG4/ISO/AVC
Duration : 2h 47mn
Bit rate : 3 121 Kbps
Width : 1 280 pixels
Height : 720 pixels
Display aspect ratio : 16:9
Frame rate : 50.000 fps
Color space : YUV
Chroma subsampling : 4:2:0
Bit depth : 8 bits
Scan type : Progressive
Bits/(Pixel*Frame) : 0.068
Stream size : 3.65 GiB (86%)
Writing library : x264 core 92 r1510 33d382a
Encoding settings : cabac=1 / ref=3 / deblock=1:0:0 / analyse=0x3:0x113 / me=hex / subme=7 / psy=1 / psy_rd=1.00:0.00 / mixed_ref=1 / me_range=16 / chroma_me=1 / trellis=1 / 8x8dct=1 / cqm=0 / deadzone=21,11 / fast_pskip=1 / chroma_qp_offset=-2 / threads=3 / sliced_threads=0 / nr=0 / decimate=1 / interlaced=0 / constrained_intra=0 / bframes=3 / b_pyramid=2 / b_adapt=1 / b_bias=0 / direct=1 / wpredb=1 / wpredp=2 / keyint=250 / keyint_min=25 / scenecut=40 / intra_refresh=0 / rc_lookahead=40 / rc=crf / mbtree=1 / crf=24.0 / qcomp=0.60 / qpmin=10 / qpmax=51 / qpstep=4 / ip_ratio=1.40 / aq=1:1.00
Language : English

Audio
ID : 2
Format : AC-3
Format/Info : Audio Coding 3
Mode extension : CM (complete main)
Codec ID : A_AC3
Duration : 2h 47mn
Bit rate mode : Constant
Bit rate : 448 Kbps
Channel(s) : 6 channels
Channel positions : Front: L C R, Side: L R, LFE
Sampling rate : 48.0 KHz
Bit depth : 16 bits
Compression mode : Lossy
Stream size : 537 MiB (12%)
Title : А.Метревели
Language : Russian

_________________
Donate: yoomoney 410011809224246
Sberbank 4274 3200 7566 3347
Profile PM
Ответить на тему