Australian Open 2008 / Полуфинал / Р.Федерер - Н.Джокович / R.Federer - N.Djokovic / Tennischannel [25.01.2008, XviD, SD, RU, EN, SAT]

Australian Open 2008 / Полуфинал / Р.Федерер - Н.Джокович / R.Federer - N.Djokovic / Tennischannel [25.01.2008, XviD, SD, RU, EN, SAT]

Ответить на тему

Автор Сообщение

oleg_1954


Стаж: 12 лет

Сообщений: 10601

Откуда: Волгоград

Россия

Торрент-статистика

post 23-Сен-2011 17:40

Quote


Roger Federer - Novak Djokovic. Australian Open 2008. Semifinal
Роджер Федерер - Новак Джокович. Открытый чемпионат Австралии 2008. Полуфинал

Год выпуска: 2008
Вид спорта: Теннис
Участники: Роджер Федерер - Новак Джокович. Открытый чемпионат Австралии 2008. Полуфинал
Комментарий: Профессиональный 1.Русский (Б.Боровский) 2.Английский
Качество: SATRip
Формат: AVI
Видео кодек: XviD
Аудио кодек: MP3
Видео: MPEG4 Video XviD 640x480 29.97 fps Bit rate 1199 Kbps Aspect Ratio 4:3
Аудио 1: Русский MPEG Audio Layer 3 48000 Hz stereo 128 Kbps CBR
Аудио 2: Английский MPEG Audio Layer 3 48000 Hz stereo 128 Kbps CBR
02:03:24
Файл скачан с файлообменника, автор "рипа" неизвестен
Русская звуковая дорожка - запись с канала "Евроспорт"
В пропущенных фрагментах - звук с канала "Tennischannel"
General
Format : AVI
Format/Info : Audio Video Interleave
File size : 1.27 GiB
Duration : 2h 3mn
Overall bit rate : 1 472 Kbps
Writing application : VirtualDubMod 1.5.10.2 (build 2540/release)
Writing library : VirtualDubMod build 2540/release

Video
ID : 0
Format : MPEG-4 Visual
Format profile : Advanced Simple@L5
Format settings, BVOP : 2
Format settings, QPel : No
Format settings, GMC : No warppoints
Format settings, Matrix : Default (H.263)
Codec ID : XVID
Codec ID/Hint : XviD
Duration : 2h 3mn
Bit rate : 1 199 Kbps
Width : 640 pixels
Height : 480 pixels
Display aspect ratio : 4:3
Frame rate : 29.970 fps
Color space : YUV
Chroma subsampling : 4:2:0
Bit depth : 8 bits
Scan type : Progressive
Compression mode : Lossy
Bits/(Pixel*Frame) : 0.130
Stream size : 1.03 GiB (81%)
Writing library : XviD 1.1.2 (UTC 2006-11-01)

Audio #1
ID : 1
Format : MPEG Audio
Format version : Version 1
Format profile : Layer 3
Codec ID : 55
Codec ID/Hint : MP3
Duration : 2h 3mn
Bit rate mode : Constant
Bit rate : 128 Kbps
Channel(s) : 2 channels
Sampling rate : 48.0 KHz
Compression mode : Lossy
Stream size : 113 MiB (9%)
Alignment : Aligned on interleaves
Interleave, duration : 33 ms (1.00 video frame)
Interleave, preload duration : 504 ms
Writing library : LAME3.98r
Encoding settings : -m s -V 4 -q 2 -lowpass 17 -b 128

Audio #2
ID : 2
Format : MPEG Audio
Format version : Version 1
Format profile : Layer 3
Codec ID : 55
Codec ID/Hint : MP3
Duration : 2h 3mn
Bit rate mode : Constant
Bit rate : 128 Kbps
Channel(s) : 2 channels
Sampling rate : 48.0 KHz
Compression mode : Lossy
Stream size : 113 MiB (9%)
Alignment : Aligned on interleaves
Interleave, duration : 33 ms (1.00 video frame)
Interleave, preload duration : 504 ms
Writing library : LAME3.98r
Encoding settings : -m s -V 4 -q 2 -lowpass 17 -b 128

_________________
Donate: yoomoney 410011809224246
Sberbank 4274 3200 7566 3347


Последний раз редактировалось: oleg_1954 (2014-08-26 17:40), всего редактировалось 1 раз
Profile PM

sav11


Стаж: 9 лет 3 месяца

Сообщений: 62

Италия

Торрент-статистика

post 26-Авг-2014 11:09 (спустя 2 года 11 месяцев)

Quote


Reseed please.
Profile PM
Ответить на тему