Australian Open 2005 / Полуфинал / Э.Роддик - Л.Хьюитт / A.Roddick - L.Hewitt / Eurosport [25.01.2005, XviD, SD, RU, GER, TV]

Australian Open 2005 / Полуфинал / Э.Роддик - Л.Хьюитт / A.Roddick - L.Hewitt / Eurosport [25.01.2005, XviD, SD, RU, GER, TV]

Ответить на тему

Автор Сообщение

oleg_1954


Стаж: 12 лет

Сообщений: 10604

Откуда: Волгоград

Россия

Торрент-статистика

post 07-Окт-2011 20:08

Quote


Andy Roddick - Lleyton Hewitt. Australian Open 2005. Semifinal
Энди Роддик - Лейтон Хьюитт. Открытый чемпионат Австралии 2005. Полуфинал

Год выпуска: 2005
Вид спорта: Теннис
Участники: Энди Роддик - Лейтон Хьюитт. Открытый чемпионат Австралии 2005. Полуфинал
Комментарий: Профессиональный 1.Русский (М.Семин, Ю.Сальникова) 2.Немецкий
Качество: TVRip
Формат: AVI
Видео кодек: DivX
Аудио кодек: MP3
Видео: MPEG4 Video DivX 5 720x576 25.00 fps Bit rate 1513 Kbps Aspect Ratio 4:3
Аудио 1: Русский MPEG Audio Layer 3 48000 Hz stereo 128 Kbps CBR
Аудио 2: Немецкий MPEG Audio Layer 3 48000 Hz stereo 128 Kbps CBR
Доп.инфо: русский комментарий с 15 минуты
02:59:34
Файл скачан с файлообменника, автор "рипа" неизвестен
Русская звуковая дорожка - запись с канала "Евроспорт"
Комментарий с 15 минуты. В пропущенных фрагментах - звук с канала "Eurosport"
General
Format : AVI
Format/Info : Audio Video Interleave
Format profile : OpenDML
File size : 2.24 GiB
Duration : 2h 59mn
Overall bit rate : 1 788 Kbps
Writing application : VirtualDubMod 1.5.10.2 (build 2540/release)
Writing library : VirtualDubMod build 2540/release

Video
ID : 0
Format : MPEG-4 Visual
Format settings, BVOP : 1
Format settings, QPel : No
Format settings, GMC : No warppoints
Format settings, Matrix : Default (H.263)
Codec ID : DX50
Codec ID/Hint : DivX 5
Duration : 2h 59mn
Bit rate : 1 513 Kbps
Width : 720 pixels
Height : 576 pixels
Display aspect ratio : 4:3
Frame rate : 25.000 fps
Standard : PAL
Color space : YUV
Chroma subsampling : 4:2:0
Bit depth : 8 bits
Scan type : Progressive
Compression mode : Lossy
Bits/(Pixel*Frame) : 0.146
Stream size : 1.90 GiB (85%)
Writing library : DivX 5.0.5 (UTC 2003-04-24)

Audio #1
ID : 1
Format : MPEG Audio
Format version : Version 1
Format profile : Layer 3
Codec ID : 55
Codec ID/Hint : MP3
Duration : 2h 59mn
Bit rate mode : Constant
Bit rate : 128 Kbps
Channel(s) : 2 channels
Sampling rate : 48.0 KHz
Compression mode : Lossy
Stream size : 164 MiB (7%)
Alignment : Aligned on interleaves
Interleave, duration : 40 ms (1.00 video frame)
Interleave, preload duration : 504 ms

Audio #2
ID : 2
Format : MPEG Audio
Format version : Version 1
Format profile : Layer 3
Codec ID : 55
Codec ID/Hint : MP3
Duration : 2h 59mn
Bit rate mode : Constant
Bit rate : 128 Kbps
Channel(s) : 2 channels
Sampling rate : 48.0 KHz
Compression mode : Lossy
Stream size : 164 MiB (7%)
Alignment : Aligned on interleaves
Interleave, duration : 40 ms (1.00 video frame)
Interleave, preload duration : 504 ms

_________________
Donate: yoomoney 410011809224246
Sberbank 4274 3200 7566 3347
Profile PM

oleg_1954


Стаж: 12 лет

Сообщений: 10604

Откуда: Волгоград

Россия

Торрент-статистика

post 07-Май-2014 15:38 (спустя 2 года 6 месяцев)

Quote


H.264, 360p
Комментарий: 1.Русский (М.Семин, Ю.Сальникова) 2.Английский

_________________
Donate: yoomoney 410011809224246
Sberbank 4274 3200 7566 3347
Profile PM
Ответить на тему