Wimbledon 2007 / 3й круг / Р.Федерер - М.Сафин / R.Federer - M.Safin / НТВ+, Starsports [29.06.2007, XviD, SD, RU, CHI, SAT]

Wimbledon 2007 / 3й круг / Р.Федерер - М.Сафин / R.Federer - M.Safin / НТВ+, Starsports [29.06.2007, XviD, SD, RU, CHI, SAT]

Ответить на тему

Автор Сообщение

oleg_1954


Стаж: 12 лет

Сообщений: 10601

Откуда: Волгоград

Россия

Торрент-статистика

post 07-Окт-2011 20:18

Quote


Roger Federer - Marat Safin. Wimbledon 2007. 3rd Round
Роджер Федерер - Марат Сафин. Уимблдон 2007. 3й круг

Год выпуска: 2007
Вид спорта: Теннис
Участники: Роджер Федерер - Марат Сафин. Уимблдон 2007. 3й круг
Комментарий: Профессиональный 1.Русский (А.Метревели, А.Дмитриева) 2.Китайский
Качество: SATRip Формат: AVI
Видео кодек: DivX, XviD Аудио кодек: MP3
Видео файл 1,3: MPEG4 Video DivX 5 512x388 25.00 fps Bit rate 1670 Kbps Aspect Ratio 1.440
Audio: Русский MPEG Audio Layer 3 32000 Hz stereo 128 Kbps CBR
Видео файл 2: MPEG4 Video XviD 720x536 25.00 fps Bit rate 1583 Kbps Aspect Ratio 1.333
Аудио 1: Русский MPEG Audio Layer 3 48000 Hz stereo 128 Kbps CBR
Аудио 2: Китайский MPEG Audio Layer 3 48000 Hz stereo 128 Kbps CBR
Доп.инфо: пропущен гейм в начале 2 го сета. 3й файл - обзор игры, и послематчевое интервью Марата
01:40:37=00:20:56+01:07:21+00:12:20
Из моих архивов
Пропущен гейм в начале 2 го сета.
Третий файл - обзор игры в студии, и послематчевое интервью Марата
General
Format : AVI
Format/Info : Audio Video Interleave
File size : 271 MiB
Duration : 20mn 56s
Overall bit rate : 1 808 Kbps
Writing application : VirtualDubMod 1.5.10.2 (build 2540/release)
Writing library : VirtualDub build 30009/release

Video
ID : 0
Format : MPEG-4 Visual
Format settings, BVOP : 1
Format settings, QPel : No
Format settings, GMC : No warppoints
Format settings, Matrix : Default (H.263)
Codec ID : DX50
Codec ID/Hint : DivX 5
Duration : 20mn 56s
Bit rate : 1 670 Kbps
Width : 512 pixels
Height : 388 pixels
Display aspect ratio : 1.440
Frame rate : 25.000 fps
Color space : YUV
Chroma subsampling : 4:2:0
Bit depth : 8 bits
Scan type : Progressive
Compression mode : Lossy
Bits/(Pixel*Frame) : 0.336
Stream size : 250 MiB (92%)
Writing library : DivX 6.5.1 (UTC 2007-03)

Audio
ID : 1
Format : MPEG Audio
Format version : Version 1
Format profile : Layer 3
Codec ID : 55
Codec ID/Hint : MP3
Duration : 20mn 56s
Bit rate mode : Constant
Bit rate : 128 Kbps
Channel(s) : 2 channels
Sampling rate : 32.0 KHz
Compression mode : Lossy
Stream size : 19.2 MiB (7%)
Alignment : Aligned on interleaves
Interleave, duration : 40 ms (1.00 video frame)
Interleave, preload duration : 504 ms
General
Format : AVI
Format/Info : Audio Video Interleave
File size : 893 MiB
Duration : 1h 7mn
Overall bit rate : 1 854 Kbps
Writing application : VirtualDubMod 1.5.10.2 (build 2540/release)
Writing library : VirtualDubMod build 2540/release

Video
ID : 0
Format : MPEG-4 Visual
Format profile : Simple@L3
Format settings, BVOP : 2
Format settings, QPel : No
Format settings, GMC : No warppoints
Format settings, Matrix : Default (H.263)
Codec ID : XVID
Codec ID/Hint : XviD
Duration : 1h 7mn
Bit rate : 1 583 Kbps
Width : 720 pixels
Height : 536 pixels
Display aspect ratio : 4:3
Frame rate : 25.000 fps
Color space : YUV
Chroma subsampling : 4:2:0
Bit depth : 8 bits
Scan type : Progressive
Compression mode : Lossy
Bits/(Pixel*Frame) : 0.164
Stream size : 763 MiB (85%)
Writing library : XviD 1.1.0 Beta1 (UTC 2005-01-16)

Audio #1
ID : 1
Format : MPEG Audio
Format version : Version 1
Format profile : Layer 3
Codec ID : 55
Codec ID/Hint : MP3
Duration : 1h 7mn
Bit rate mode : Constant
Bit rate : 128 Kbps
Channel(s) : 2 channels
Sampling rate : 48.0 KHz
Compression mode : Lossy
Stream size : 61.7 MiB (7%)
Alignment : Aligned on interleaves
Interleave, duration : 40 ms (1.00 video frame)
Interleave, preload duration : 504 ms

Audio #2
ID : 2
Format : MPEG Audio
Format version : Version 1
Format profile : Layer 3
Codec ID : 55
Codec ID/Hint : MP3
Duration : 1h 7mn
Bit rate mode : Constant
Bit rate : 128 Kbps
Channel(s) : 2 channels
Sampling rate : 48.0 KHz
Compression mode : Lossy
Stream size : 61.7 MiB (7%)
Alignment : Aligned on interleaves
Interleave, duration : 40 ms (1.00 video frame)
Interleave, preload duration : 504 ms

_________________
Donate: yoomoney 410011809224246
Sberbank 4274 3200 7566 3347


Последний раз редактировалось: oleg_1954 (2011-11-17 19:23), всего редактировалось 1 раз
Profile PM

tatjana2010b


Стаж: 12 лет

Сообщений: 48

Россия

Торрент-статистика

post 05-Ноя-2011 20:31 (спустя 29 дней)

Quote


Спасибо,Олег! Вы всегда радуете своими релизами.
Profile PM

sav11


Стаж: 9 лет 3 месяца

Сообщений: 62

Италия

Торрент-статистика

post 26-Авг-2014 11:04 (спустя 2 года 9 месяцев)

Quote


Many thanks!
Profile PM
Ответить на тему