US Open 2009 / Финал / Ким Клийстерс - Каролин Возняцки / Kim Clijsters - Caroline Wozniacki / Sky Sports HD [13.09.2009, HD, 720p, RU, EN, SAT]

US Open 2009 / Финал / Ким Клийстерс - Каролин Возняцки / Kim Clijsters - Caroline Wozniacki / Sky Sports HD [13.09.2009, HD, 720p, RU, EN, SAT]

Ответить на тему

Автор Сообщение

oleg_1954


Стаж: 12 лет

Сообщений: 10604

Откуда: Волгоград

Россия

Торрент-статистика

post 31-Дек-2011 21:19

Quote


Kim Clijsters - Caroline Wozniacki. US Open 2009. Final
Ким Клийстерс - Каролин Возняцки. Открытый чемпионат США 2009. Финал

Год выпуска: 2009
Вид спорта: Теннис
Участники: Ким Клийстерс - Каролин Возняцки. Открытый чемпионат США 2009. Финал
Комментарий: Профессиональный 1.Русский (А.Метревели, А.Дмитриева). 2.Английский
Качество: SATRip
Формат: MKV
Видео кодек: H.264
Аудио кодек: AC3
Видео: MPEG4 Video H.264 1280x720 50.00 fps Bitrate 2543 Kbps Aspect Ratio 16:9
Аудио 1: Русский AC3 48000 Hz stereo 192 Kbps
Аудио 2: Английский AC3 48000 Hz stereo 384 Kbps
02:06:09
Файл скачан с другого "трекера", автор "рипа" неизвестен
Русская звуковая дорожка запись с канала "Теннис"
General
Format : Matroska
File size : 2.80 GiB
Duration : 2h 6mn
Overall bit rate : 3 182 Kbps
Encoded date : UTC 2009-10-15 12:28:05
Writing application : mkvmerge v2.9.7 ('Tenderness') built on Jul 1 2009 18:43:35
Writing library : libebml v0.7.7 + libmatroska v0.8.1

Video
ID : 1
Format : AVC
Format/Info : Advanced Video Codec
Format profile : Main@L4.0
Format settings, CABAC : Yes
Format settings, ReFrames : 4 frames
Format settings, GOP : M=4, N=32
Muxing mode : Container profile=Unknown@4.0
Codec ID : V_MPEG4/ISO/AVC
Duration : 2h 6mn
Bit rate mode : Variable
Bit rate : 2 543 Kbps
Maximum bit rate : 20.0 Mbps
Width : 1 280 pixels
Height : 720 pixels
Display aspect ratio : 16:9
Frame rate : 50.000 fps
Color space : YUV
Chroma subsampling : 4:2:0
Bit depth : 8 bits
Scan type : Progressive
Bits/(Pixel*Frame) : 0.055
Stream size : 2.24 GiB (80%)
Title : K.Clijsters - C.Wozniacki.US Open 2009 Final.HDTV
Color primaries : BT.709-5, BT.1361, IEC 61966-2-4, SMPTE RP177
Transfer characteristics : BT.709-5, BT.1361
Matrix coefficients : BT.709-5, BT.1361, IEC 61966-2-4 709, SMPTE RP177

Audio #1
ID : 2
Format : AC-3
Format/Info : Audio Coding 3
Mode extension : CM (complete main)
Codec ID : A_AC3
Duration : 2h 6mn
Bit rate mode : Constant
Bit rate : 192 Kbps
Channel(s) : 2 channels
Channel positions : Front: L R
Sampling rate : 48.0 KHz
Bit depth : 16 bits
Stream size : 173 MiB (6%)
Title : А.Метревели, А.Дмитриева
Language : Russian

Audio #2
ID : 3
Format : AC-3
Format/Info : Audio Coding 3
Mode extension : CM (complete main)
Codec ID : A_AC3
Duration : 2h 6mn
Bit rate mode : Constant
Bit rate : 384 Kbps
Channel(s) : 2 channels
Channel positions : Front: L R
Sampling rate : 48.0 KHz
Bit depth : 16 bits
Video delay : 4ms
Stream size : 346 MiB (12%)
Language : English

_________________
Donate: yoomoney 410011809224246
Sberbank 4274 3200 7566 3347


Последний раз редактировалось: oleg_1954 (2018-02-02 18:42), всего редактировалось 1 раз
Profile PM

TendreVoyou


Стаж: 6 лет 11 месяцев

Сообщений: 17

Торрент-статистика

post 27-Дек-2016 20:18 (спустя 4 года 11 месяцев)

Quote


Полного источника не было: Никогда
Зарегистрирован: 9 месяцев
Torrent скачан: 69 раз
???????????????????????

поделитесь
Profile PM

TendreVoyou


Стаж: 6 лет 11 месяцев

Сообщений: 17

Торрент-статистика

post 27-Дек-2016 22:56 (спустя 2 часа 38 минут)

Quote


СПАСИБО ОЛЕГ .

раритетный матч в hd !
Profile PM
Ответить на тему