Toronto 2004 / Финал / Роджер Федерер - Энди Роддик / Roger Federer - Andy Roddick / НТВ+ [01.08.2004, SD, XviD, RU, SAT]

Toronto 2004 / Финал / Роджер Федерер - Энди Роддик / Roger Federer - Andy Roddick / НТВ+ [01.08.2004, SD, XviD, RU, SAT]

Ответить на тему

Автор Сообщение

oleg_1954


Стаж: 12 лет

Сообщений: 10601

Откуда: Волгоград

Россия

Торрент-статистика

post 22-Фев-2012 18:17

Quote


Roger Federer - Andy Roddick. Toronto 2004. Final
Роджер Федерер - Энди Роддик. Торонто 2004. Финал

Год выпуска: 2004
Вид спорта: Теннис
Участники: Роджер Федерер - Энди Роддик. Торонто 2004. Финал
Комментарий: Профессиональный русский (А.Метревели)
Качество: SATRip
Формат: AVI
Видео кодек: XviD
Аудио кодек: MP3
Видео: MPEG4 Video XviD 704x528 25.00 fps Bit rate 1800 Kbps Aspect Ratio 4:3
Аудио: Русский MP3 32000 Hz stereo 96 Kbps
Автор "рипа" SlesarЬ
01:51:37
General
Format : AVI
Format/Info : Audio Video Interleave
File size : 1.49 GiB
Duration : 1h 51mn
Overall bit rate : 1 906 Kbps
Writing application : VirtualDubMod 1.5.10.2 (build 2540/release)
Writing library : VirtualDubMod build 2540/release

Video
ID : 0
Format : MPEG-4 Visual
Format profile : Advanced Simple@L5
Format settings, BVOP : 2
Format settings, QPel : No
Format settings, GMC : No warppoints
Format settings, Matrix : Default (H.263)
Codec ID : XVID
Codec ID/Hint : XviD
Duration : 1h 51mn
Bit rate : 1 800 Kbps
Width : 704 pixels
Height : 528 pixels
Display aspect ratio : 4:3
Frame rate : 25.000 fps
Color space : YUV
Chroma subsampling : 4:2:0
Bit depth : 8 bits
Scan type : Progressive
Compression mode : Lossy
Bits/(Pixel*Frame) : 0.194
Stream size : 1.40 GiB (94%)
Writing library : XviD 1.2.1 (UTC 2008-12-04)

Audio
ID : 1
Format : MPEG Audio
Format version : Version 1
Format profile : Layer 3
Codec ID : 55
Codec ID/Hint : MP3
Duration : 1h 51mn
Bit rate mode : Constant
Bit rate : 96.0 Kbps
Channel(s) : 2 channels
Sampling rate : 32.0 KHz
Compression mode : Lossy
Stream size : 76.6 MiB (5%)
Alignment : Aligned on interleaves
Interleave, duration : 40 ms (1.00 video frame)
Interleave, preload duration : 504 ms
Writing library : LAME3.98r
Encoding settings : -m s -V 4 -q 2 -lowpass 15.1 -b 96

_________________
Donate: yoomoney 410011809224246
Sberbank 4274 3200 7566 3347


Последний раз редактировалось: oleg_1954 (2014-08-29 10:16), всего редактировалось 1 раз
Profile PM

sav11


Стаж: 9 лет 3 месяца

Сообщений: 62

Италия

Торрент-статистика

post 28-Авг-2014 22:17 (спустя 2 года 6 месяцев)

Quote


Reseed please.
Profile PM
Ответить на тему