Australian Open 2005 / 1-й круг / Марат Сафин - Новак Джокович / Marat Safin - Novak Djokovic / НТВ+ [2005, SD, XviD, RU, SAT]

Australian Open 2005 / 1-й круг / Марат Сафин - Новак Джокович / Marat Safin - Novak Djokovic / НТВ+ [2005, SD, XviD, RU, SAT]

Ответить на тему

Автор Сообщение

oleg_1954


Стаж: 12 лет

Сообщений: 10609

Откуда: Волгоград

Россия

Торрент-статистика

post 07-Мар-2012 15:24

Quote


Marat Safin - Novak Djokovic. Australian Open 2005. 1st Round
Марат Сафин - Новак Джокович. Открытый чемпионат Австралии 2005. 1-й круг

Год выпуска: 2005
Вид спорта: Теннис
Участники: Марат Сафин - Новак Джокович. Открытый чемпионат Австралии 2005. 1-й круг
Комментарий: Профессиональный русский (А.Метревели, А.Дмитриева)
Качество: SATRip
Формат: AVI
Видео кодек: XviD
Аудио кодек: MP3
Видео: MPEG4 Video XviD 696x514 25.00 fps Bit rate 1989 Kbps Aspect Ratio 4:3
Аудио: Русский MP3 48000 Hz stereo 128 Kbps
01:20:09
Файл из моих архивов, автор "рипа" неизвестен
General
Format : AVI
Format/Info : Audio Video Interleave
File size : 1.19 GiB
Duration : 1h 20mn
Overall bit rate : 2 127 Kbps
Writing application : VirtualDubMod 1.5.10.2 (build 2540/release)
Writing library : VirtualDubMod build 2540/release

Video
ID : 0
Format : MPEG-4 Visual
Format profile : Advanced Simple@L5
Format settings, BVOP : 2
Format settings, QPel : No
Format settings, GMC : No warppoints
Format settings, Matrix : Default (MPEG)
Codec ID : XVID
Codec ID/Hint : XviD
Duration : 1h 20mn
Bit rate : 1 989 Kbps
Width : 696 pixels
Height : 514 pixels
Display aspect ratio : 4:3
Frame rate : 25.000 fps
Color space : YUV
Chroma subsampling : 4:2:0
Bit depth : 8 bits
Scan type : Progressive
Compression mode : Lossy
Bits/(Pixel*Frame) : 0.222
Stream size : 1.11 GiB (94%)
Writing library : XviD 1.2.0.dev47 (UTC 2006-11-01)

Audio
ID : 1
Format : MPEG Audio
Format version : Version 1
Format profile : Layer 3
Codec ID : 55
Codec ID/Hint : MP3
Duration : 1h 20mn
Bit rate mode : Constant
Bit rate : 128 Kbps
Channel(s) : 2 channels
Sampling rate : 48.0 KHz
Compression mode : Lossy
Stream size : 73.4 MiB (6%)
Alignment : Aligned on interleaves
Interleave, duration : 40 ms (1.00 video frame)
Interleave, preload duration : 504 ms

_________________
Donate: yoomoney 410011809224246
Sberbank 4274 3200 7566 3347


Последний раз редактировалось: oleg_1954 (2021-07-07 21:00), всего редактировалось 4 раз(а)
Profile PM

DjokerSA


Стаж: 8 лет 10 месяцев

Сообщений: 1

ЮАР

Торрент-статистика

post 14-Мар-2014 12:10 (спустя 2 года)

Quote


Is it possible to reseed this torrent?
Profile PM

oleg_1954


Стаж: 12 лет

Сообщений: 10609

Откуда: Волгоград

Россия

Торрент-статистика

post 18-Фев-2015 18:52 (спустя 11 месяцев)

Quote


M.Safin - N.Djokovic.AO 2005.R1.504p (50 fps)

_________________
Donate: yoomoney 410011809224246
Sberbank 4274 3200 7566 3347
Profile PM
Ответить на тему