ATP World Tour Finals. Лондон 2010 / Полуфинал / Н.Джокович - Р.Федерер / N.Djokovic - R.Federer [27.11.2010, HD, 720p, H.264, EN, SAT]

ATP World Tour Finals. Лондон 2010 / Полуфинал / Н.Джокович - Р.Федерер / N.Djokovic - R.Federer [27.11.2010, HD, 720p, H.264, EN, SAT]

Ответить на тему

Автор Сообщение

oleg_1954


Стаж: 12 лет

Сообщений: 10601

Откуда: Волгоград

Россия

Торрент-статистика

post 30-Ноя-2010 19:45

Quote



Novak Djokovic - Roger Federer. London 2010. Semifinal
Новак Джокович - Роджер Федерер. Лондон 2010. Полуфинал

Год выпуска: 2010 Вид спорта: Теннис
Участники: Новак Джокович - Роджер Федерер. Лондон 2010. Полуфинал
Комментарий: Профессиональный 1.Русский (А.Метревели, А.Дмитриева) 2.Английский (M.Petchey, P.Cash, G.Rusedski, B.Cowan, P.Fleming, A.Croft)
Доп. информация: Русский комментарий с 3 й минуты.
Качество: HDTVRip
Формат: MKV
Видео кодек: H.264
Аудио кодек: AC3
Видео: MPEG4 Video H.264 1280x720 50 fps Bit rate 2837 Kbps Aspect Ratio 16:9
Аудио 1: Русский AC3 48000 Hz stereo 192 Kbps
Аудио 2: Английский AC3 48000 Hz 6 channels 384 Kbps
01:31:30
Файл скачан с другого "трекера", автор исходного "рипа" krycek, реклама вырезана
Русская звуковая дорожка из раздачи:
ATP World Tour / London - 2010 / 1/2 финала / Джокович - Федерер / Djokovic - Federer / НТВ+ [27.11.2010, SD, XviD, RU, SAT]
General
Format : Matroska
File size : 2.23 GiB
Duration : 1h 31mn
Overall bit rate : 3 482 Kbps
Movie name : N.Djokovic - R.Federer.London 2010.SF
Encoded date : UTC 2010-11-30 12:39:45
Writing application : mkvmerge v4.0.0 ('The Stars were mine') built on Jun 6 2010 16:18:42
Writing library : libebml v1.0.0 + libmatroska v1.0.0

Video
ID : 1
Format : AVC
Format/Info : Advanced Video Codec
Format profile : High@L3.2
Format settings, CABAC : Yes
Format settings, ReFrames : 4 frames
Muxing mode : Container profile=Unknown@3.2
Codec ID : V_MPEG4/ISO/AVC
Duration : 1h 31mn
Bit rate : 2 837 Kbps
Width : 1 280 pixels
Height : 720 pixels
Display aspect ratio : 16:9
Frame rate : 50.000 fps
Color space : YUV
Chroma subsampling : 4:2:0
Bit depth : 8 bits
Scan type : Progressive
Bits/(Pixel*Frame) : 0.062
Stream size : 1.81 GiB (81%)
Writing library : x264 core 92 r1510 33d382a
Encoding settings : cabac=1 / ref=4 / deblock=1:0:0 / analyse=0x3:0x113 / me=umh / subme=8 / psy=1 / psy_rd=1.00:0.00 / mixed_ref=1 / me_range=16 / chroma_me=1 / trellis=1 / 8x8dct=1 / cqm=0 / deadzone=21,11 / fast_pskip=1 / chroma_qp_offset=-2 / threads=3 / sliced_threads=0 / nr=0 / decimate=1 / interlaced=0 / constrained_intra=0 / bframes=3 / b_pyramid=2 / b_adapt=2 / b_bias=0 / direct=3 / wpredb=1 / wpredp=2 / keyint=250 / keyint_min=25 / scenecut=40 / intra_refresh=0 / rc_lookahead=50 / rc=crf / mbtree=1 / crf=23.0 / qcomp=0.60 / qpmin=10 / qpmax=51 / qpstep=4 / ip_ratio=1.40 / aq=1:1.00
Language : English

Audio #1
ID : 2
Format : AC-3
Format/Info : Audio Coding 3
Mode extension : CM (complete main)
Codec ID : A_AC3
Duration : 1h 31mn
Bit rate mode : Constant
Bit rate : 192 Kbps
Channel(s) : 2 channels
Channel positions : Front: L R
Sampling rate : 48.0 KHz
Bit depth : 16 bits
Stream size : 126 MiB (6%)
Title : А.Метревели, А.Дмитриева
Language : Russian

Audio #2
ID : 3
Format : AC-3
Format/Info : Audio Coding 3
Mode extension : CM (complete main)
Codec ID : A_AC3
Duration : 1h 31mn
Bit rate mode : Constant
Bit rate : 384 Kbps
Channel(s) : 6 channels
Channel positions : Front: L C R, Side: L R, LFE
Sampling rate : 48.0 KHz
Bit depth : 16 bits
Video delay : 45ms
Stream size : 251 MiB (11%)
Title : M.Petchey, P.Cash
Language : English

Menu
00:14:10.240 : en:1 Set
00:46:05.160 : en:1 Set
01:26:46.520 : en:Match Point
01:29:03.600 : en:Interview


Последний раз редактировалось: oleg_1954 (2022-11-14 11:37), всего редактировалось 6 раз(а)
Profile PM
Ответить на тему