Лига Чемпионов 2012-13 / 1/8 финала / Первый матч / Реал (Испания) - Манчестер Юнайтед (Англия) / Sky Calcio HD [13.02.2013, HD, H.264, 50 fps, 720p, EN + ITA + RU + INT, HDTVRip]

Ответить на тему

Автор Сообщение

Compiler


Стаж: 5 лет 9 месяцев

Сообщений: 946

Россия

Торрент-статистика

post 15-Фев-2013 19:45

Quote



Дата матча: 13.02.2013
Вид спорта: Футбол
Продолжительность: 01:35:29
Комментарий: Профессиональный
Язык комментариев: Английский (Sky Sports) & Итальянский (Sky Calcio) & Русский (НТВ+) & Интершум
Автор записи и рипа: Рип собственный (за исходник спасибо Nikolay_-_-)

-[NoImage] raw [info]: 1280x720p 1:1 @ 50/1 fps (cfr)
-[NoImage] x264 [info]: using SAR=1/1
-[NoImage] x264 [info]: using cpu capabilities: MMX2 SSE2Fast SSSE3 FastShuffle SSE4.2 AVX
-[NoImage] x264 [info]: profile High, level 4.1
-[NoImage]
-[NoImage] x264 [info]: frame I:845 Avg QP:21.44 size:117033
-[NoImage] x264 [info]: frame P:78922 Avg QP:24.28 size: 33769
-[NoImage] x264 [info]: frame B:206673 Avg QP:27.80 size: 7006
-[NoImage] x264 [info]: consecutive B-frames: 1.0% 5.5% 9.0% 84.5%
-[NoImage] x264 [info]: mb I I16..4: 7.2% 68.6% 24.2%
-[NoImage] x264 [info]: mb P I16..4: 2.2% 5.4% 1.1% P16..4: 44.8% 20.7% 13.6% 0.0% 0.0% skip:12.3%
-[NoImage] x264 [info]: mb B I16..4: 0.2% 0.4% 0.1% B16..8: 47.4% 6.4% 1.4% direct: 2.4% skip:41.9% L0:39.6% L1:51.8% BI: 8.6%
-[NoImage] x264 [info]: 8x8 transform intra:62.0% inter:74.0%
-[NoImage] x264 [info]: direct mvs spatial:100.0% temporal:0.0%
-[NoImage] x264 [info]: coded y,uvDC,uvAC intra: 61.8% 74.2% 32.2% inter: 19.9% 18.6% 1.5%
-[NoImage] x264 [info]: i16 v,h,dc,p: 20% 21% 3% 56%
-[NoImage] x264 [info]: i8 v,h,dc,ddl,ddr,vr,hd,vl,hu: 11% 11% 4% 9% 14% 13% 15% 11% 13%
-[NoImage] x264 [info]: i4 v,h,dc,ddl,ddr,vr,hd,vl,hu: 12% 17% 3% 7% 12% 12% 13% 10% 13%
-[NoImage] x264 [info]: i8c dc,h,v,p: 29% 27% 23% 22%
-[NoImage] x264 [info]: Weighted P-Frames: Y:2.2% UV:0.6%
-[NoImage] x264 [info]: ref P L0: 62.0% 14.9% 16.2% 3.4% 3.1% 0.3% 0.0%
-[NoImage] x264 [info]: ref B L0: 86.5% 10.4% 2.6% 0.4%
-[NoImage] x264 [info]: ref B L1: 94.4% 5.6%
-[NoImage] x264 [info]: kb/s:5881.95
-[NoImage] encoded 286440 frames, 20.46 fps, 5881.95 kb/s
Format : Matroska
Format version : Version 4 / Version 2
File size : 4.61 GiB
Duration : 1h 35mn
Overall bit rate : 6 910 Kbps
Encoded date : UTC 2010-02-22 21:41:31
Writing application : mkvmerge v5.9.0 ('On The Loose') built on Dec 9 2012 15:37:01
Writing library : libebml v1.3.0 + libmatroska v1.4.0

Video
ID : 1
Format : AVC
Format/Info : Advanced Video Codec
Format profile : High@L4.1
Format settings, CABAC : Yes
Format settings, ReFrames : 5 frames
Codec ID : V_MPEG4/ISO/AVC
Duration : 1h 35mn
Bit rate : 5 748 Kbps
Width : 1 280 pixels
Height : 720 pixels
Display aspect ratio : 16:9
Frame rate mode : Constant
Frame rate : 50.000 fps
Color space : YUV
Chroma subsampling : 4:2:0
Bit depth : 8 bits
Scan type : Progressive
Bits/(Pixel*Frame) : 0.125
Stream size : 3.83 GiB (83%)
Writing library : x264 core 129 r2245 bc13772
Encoding settings : cabac=1 / ref=5 / deblock=1:0:0 / analyse=0x3:0x113 / me=umh / subme=8 / psy=1 / psy_rd=1.00:0.00 / mixed_ref=1 / me_range=16 / chroma_me=1 / trellis=1 / 8x8dct=1 / cqm=0 / deadzone=21,11 / fast_pskip=1 / chroma_qp_offset=-2 / threads=6 / lookahead_threads=1 / sliced_threads=0 / nr=0 / decimate=1 / interlaced=0 / bluray_compat=0 / constrained_intra=0 / bframes=3 / b_pyramid=2 / b_adapt=2 / b_bias=0 / direct=3 / weightb=1 / open_gop=0 / weightp=2 / keyint=500 / keyint_min=50 / scenecut=40 / intra_refresh=0 / rc_lookahead=50 / rc=crf / mbtree=1 / crf=21.0 / qcomp=0.60 / qpmin=0 / qpmax=69 / qpstep=4 / ip_ratio=1.40 / aq=1:1.00
Language : English
Default : Yes
Forced : No

Audio #1
ID : 2
Format : AC-3
Format/Info : Audio Coding 3
Mode extension : CM (complete main)
Format settings, Endianness : Big
Codec ID : A_AC3
Duration : 1h 35mn
Bit rate mode : Constant
Bit rate : 384 Kbps
Channel(s) : 2 channels
Channel positions : Front: L R
Sampling rate : 48.0 KHz
Bit depth : 16 bits
Compression mode : Lossy
Delay relative to video : 12ms
Stream size : 262 MiB (6%)
Title : Stadium
Default : No
Forced : No

Audio #2
ID : 3
Format : AC-3
Format/Info : Audio Coding 3
Mode extension : CM (complete main)
Format settings, Endianness : Big
Codec ID : A_AC3
Duration : 1h 35mn
Bit rate mode : Constant
Bit rate : 384 Kbps
Channel(s) : 6 channels
Channel positions : Front: L C R, Side: L R, LFE
Sampling rate : 48.0 KHz
Bit depth : 16 bits
Compression mode : Lossy
Delay relative to video : 12ms
Stream size : 262 MiB (6%)
Title : Sky Calcio
Language : Italian
Default : No
Forced : No

Audio #3
ID : 4
Format : AC-3
Format/Info : Audio Coding 3
Mode extension : CM (complete main)
Format settings, Endianness : Big
Codec ID : A_AC3
Duration : 1h 35mn
Bit rate mode : Constant
Bit rate : 128 Kbps
Channel(s) : 2 channels
Channel positions : Front: L R
Sampling rate : 48.0 KHz
Bit depth : 16 bits
Compression mode : Lossy
Stream size : 87.4 MiB (2%)
Title : NTV+
Language : Russian
Default : No
Forced : No

Audio #4
ID : 5
Format : AC-3
Format/Info : Audio Coding 3
Mode extension : CM (complete main)
Format settings, Endianness : Big
Codec ID : A_AC3
Duration : 1h 35mn
Bit rate mode : Constant
Bit rate : 128 Kbps
Channel(s) : 2 channels
Channel positions : Front: L R
Sampling rate : 48.0 KHz
Bit depth : 16 bits
Compression mode : Lossy
Stream size : 87.4 MiB (2%)
Title : Sky Sports
Language : English
Default : Yes
Forced : No

Menu
00:00:00.000 : :First Half
00:47:17.472 : :Second Half
<<1 - 1>>

Качество: HDTVRip
Формат: MKV
Видео кодек: H.264
Аудио кодек: AC3
Видео: 5748 kbps (crf = 21.0), 1280 x 720, 50 fps
Аудио #1 [English]: 48.0 kHz 2 ch, 384 kbps
Аудио #2 [Italian]: 48.0 kHz 2 ch, 384 kbps
Аудио #3 [Russian]: 48.0 kHz 2 ch, 128 kbps
Аудио #4 [Stadium Sound]: 48.0 kHz 2 ch, 384 kbps


Последний раз редактировалось: Compiler (2013-02-15 20:03), всего редактировалось 1 раз
Profile PM

Curtis


Стаж: 6 лет

Сообщений: 893

Россия

Торрент-статистика

post 15-Фев-2013 19:53 (спустя 8 минут)

Quote


Превосходно!!! так держать!
Profile PM

Пикник


Стаж: 5 лет 8 месяцев

Сообщений: 2479

Откуда: Барнаул

Северные Марианские острова

Торрент-статистика

post 15-Фев-2013 19:57 (спустя 3 минуты)

Quote


Уффф...Какая кассная раздача!!!
Profile PM

zinedine10


Стаж: 5 лет 9 месяцев

Сообщений: 5

Украина

Торрент-статистика

post 16-Фев-2013 01:57 (спустя 5 часов)

Quote


Дождались-таки! Отличная работа! Respect ab
Profile PM

soprani


Стаж: 6 лет

Сообщений: 3197

Откуда: Киев, Оболонь

Украина

Торрент-статистика

post 16-Фев-2013 02:21 (спустя 23 минуты)

Quote


Для всех коллекционеров!!!!
Спасибо!

_________________
Profile PM

Indigo_F1


Стаж: 4 года 1 месяц

Сообщений: 25

Откуда: Donbass

Украина

Торрент-статистика

post 16-Фев-2013 03:13 (спустя 52 минуты)

Quote


Большая просьба сделать такой же рип матча Шахтер - Боруссия!
Profile PM

Compiler


Стаж: 5 лет 9 месяцев

Сообщений: 946

Россия

Торрент-статистика

post 20-Фев-2013 10:16 (спустя 4 дня)

Quote


Будет такой же рип матча Арсенал - Бавария.
Profile PM

Twall


Стаж: 5 лет 9 месяцев

Сообщений: 79

Россия

Торрент-статистика

post 05-Мар-2013 10:17 (спустя 13 дней)

Quote


ща пересмотрю ка бы то там ни было
Profile PM

post 11-Июн-2015 13:12 (спустя 2 года 3 месяца)


Топик был перенесен из форума Плей-офф в форум Лига Чемпионов 2012-13

fuххer666
 
Ответить на тему