Лига Чемпионов 2012-13 / 1/8 финала / Первый матч / Арсенал (Англия) - Бавария (Германия) / НТВ+ [19.02.2013, HD, H.264, 50 fps, 720p, EN + RU + INT, HDTVRip]

Ответить на тему

Автор Сообщение

Compiler


Стаж: 5 лет 9 месяцев

Сообщений: 946

Россия

Торрент-статистика

post 21-Фев-2013 13:51

Quote



Дата матча: 19.02.2013
Вид спорта: Футбол
Продолжительность: 01:38:30
Комментарий: Профессиональный
Язык комментариев: Английский (itvsport) & Русский (НТВ+) & Интершум
Автор записи и рипа: Рип собственный (за исходник спасибо Nikolay_-_-)
Format : Matroska
Format version : Version 4 / Version 2
File size : 3.25 GiB
Duration : 1h 38mn
Overall bit rate : 4 720 Kbps
Encoded date : UTC 2010-02-22 21:41:31
Writing application : mkvmerge v5.9.0 ('On The Loose') built on Dec 9 2012 15:37:01
Writing library : libebml v1.3.0 + libmatroska v1.4.0

Video
ID : 1
Format : AVC
Format/Info : Advanced Video Codec
Format profile : High@L4.1
Format settings, CABAC : Yes
Format settings, ReFrames : 5 frames
Codec ID : V_MPEG4/ISO/AVC
Duration : 1h 38mn
Bit rate : 3 666 Kbps
Width : 1 280 pixels
Height : 720 pixels
Display aspect ratio : 16:9
Frame rate mode : Constant
Frame rate : 50.000 fps
Color space : YUV
Chroma subsampling : 4:2:0
Bit depth : 8 bits
Scan type : Progressive
Bits/(Pixel*Frame) : 0.080
Stream size : 2.52 GiB (78%)
Default : Yes
Forced : No

Audio #1
ID : 2
Format : AC-3
Format/Info : Audio Coding 3
Mode extension : CM (complete main)
Format settings, Endianness : Big
Codec ID : A_AC3
Duration : 1h 38mn
Bit rate mode : Constant
Bit rate : 192 Kbps
Channel(s) : 2 channels
Channel positions : Front: L R
Sampling rate : 48.0 KHz
Bit depth : 16 bits
Compression mode : Lossy
Stream size : 135 MiB (4%)
Title : NTV+ (AC3; 2 ch; 48 kHz; 192 kbps)
Language : Russian
Default : No
Forced : No

Audio #2
ID : 3
Format : AC-3
Format/Info : Audio Coding 3
Mode extension : CM (complete main)
Format settings, Endianness : Big
Codec ID : A_AC3
Duration : 1h 38mn
Bit rate mode : Constant
Bit rate : 384 Kbps
Channel(s) : 2 channels
Channel positions : Front: L R
Sampling rate : 48.0 KHz
Bit depth : 16 bits
Compression mode : Lossy
Stream size : 271 MiB (8%)
Title : itvsport (AC3; 2 ch; 48 kHz; 384 kbps)
Language : English
Default : Yes
Forced : No

Audio #3
ID : 4
Format : AC-3
Format/Info : Audio Coding 3
Mode extension : CM (complete main)
Format settings, Endianness : Big
Codec ID : A_AC3
Duration : 1h 38mn
Bit rate mode : Constant
Bit rate : 384 Kbps
Channel(s) : 2 channels
Channel positions : Front: L R
Sampling rate : 48.0 KHz
Bit depth : 16 bits
Compression mode : Lossy
Stream size : 271 MiB (8%)
Title : Stadium (AC3; 2 ch; 48 kHz; 384 kbps)
Default : No
Forced : No

Menu
00:00:00.000 : :First Half
00:48:00.000 : :Second Half
<<1 - 3>>

Качество: HDTVRip
Формат: MKV
Видео кодек: H.264
Аудио кодек: AC3
Видео: 3700 kbps (crf = 21.0), 1280 x 720, 50 fps
Аудио #1 [English]: 48.0 kHz 2 ch, 384 kbps
Аудио #2 [Russian]: 48.0 kHz 2 ch, 192 kbps
Аудио #3 [Stadium Sound]: 48.0 kHz 2 ch, 384 kbps
Profile PM

bandyugan


Стаж: 3 года 6 месяцев

Сообщений: 28

Откуда: Kazakhstan

Казахстан

Торрент-статистика

post 10-Сен-2013 00:20 (спустя 6 месяцев)

Quote


Народ, раздайте пожалуйста!

_________________
Vamos Madrid! Glory Chelsea! Forza Milan!
Profile PM

bandyugan


Стаж: 3 года 6 месяцев

Сообщений: 28

Откуда: Kazakhstan

Казахстан

Торрент-статистика

post 10-Сен-2013 00:45 (спустя 24 минуты)

Quote


Compiler

Раздайте пожалуйста!

_________________
Vamos Madrid! Glory Chelsea! Forza Milan!
Profile PM

bandyugan


Стаж: 3 года 6 месяцев

Сообщений: 28

Откуда: Kazakhstan

Казахстан

Торрент-статистика

post 10-Сен-2013 15:29 (спустя 14 часов)

Quote


РАЗДАЙТЕ ПОЖ-ТА!!!

_________________
Vamos Madrid! Glory Chelsea! Forza Milan!
Profile PM

post 11-Июн-2015 13:11 (спустя 1 год 9 месяцев)


Топик был перенесен из форума Плей-офф в форум Лига Чемпионов 2012-13

fuххer666
 
Ответить на тему