Лига чемпионов УЕФА 2012-13/ 1/8 финала / 2 й матч / Барселона - Милан / FC Barcelona - AC Milan / RSILA2 HD [12.03.2013, HD, 720p, RUS, ITA, SAT]

Ответить на тему

Автор Сообщение

oleg_1954


Стаж: 6 лет

Сообщений: 7810

Откуда: Волгоград

Россия

Торрент-статистика

post 14-Мар-2013 17:47

Quote


UEFA Champions League 2012-13. Quaterfinal. 2nd Match. FC Barcelona - AC Milan
Лига чемпионов УЕФА 2012-13. 1/8 финала. 2 й матч. Барселона (Испания) - Милан (Италия)

Год выпуска: 2013 Вид спорта: Футбол
Описание: 12.03.2013. Лига чемпионов УЕФА 2012-13. 1/8 финала. 2 й матч. Барселона (Испания) - Милан (Италия). Барселона (Испания). Стадион Камп Ноу.
Главный судья: Виктор Кошшои (Татабанья, Венгрия)
Комментарий: 1.Русский (К.Генич) 2.Итальянский 3.Итальянский (6 каналов)
Качество: SATRip Формат: MKV
Видео кодек: H.264 Аудио кодек: AAC, AC3
Видео: MPEG4 Video H.264 1280x720 50.00 fps Bit rate 10.23 Mbps Aspect Ratio 16:9
Аудио 1: Русский AAC 48000 Hz stereo 96 Kbps
Аудио 2: Итальянский AAC 48000 Hz stereo 96 Kbps
Аудио 3: Итальянский AC3 48000 Hz 6 channels 448 Kbps
01:36:55=00:47:00+00:49:55
Исходный файл скачан с файлообменника, автор "рипа" неизвестен
Русская звуковая дорожка из раздачи
В пропущенных фрагментах - звук с канала "RSILA2 HD"
1 й файл:
General
Format : Matroska
Format version : Version 4 / Version 2
File size : 3.57 GiB
Duration : 46mn 59s
Overall bit rate : 10.9 Mbps
Movie name : Barcelona - Milan.UCL 2012-13.QF.12.03.2013
Encoded date : UTC 2013-03-14 07:20:19
Writing application : mkvmerge v6.1.0 ('Old Devil') built on Mar 2 2013 14:32:37
Writing library : libebml v1.3.0 + libmatroska v1.4.0

Video
ID : 1
Format : AVC
Format/Info : Advanced Video Codec
Format profile : High@L4.0
Format settings, CABAC : Yes
Format settings, ReFrames : 3 frames
Format settings, GOP : M=2, N=24
Codec ID : V_MPEG4/ISO/AVC
Duration : 46mn 59s
Width : 1 280 pixels
Height : 720 pixels
Display aspect ratio : 16:9
Frame rate mode : Constant
Frame rate : 50.000 fps
Standard : Component
Color space : YUV
Chroma subsampling : 4:2:0
Bit depth : 8 bits
Scan type : Progressive
Language : Italian
Default : Yes
Forced : No
Color primaries : BT.709
Transfer characteristics : BT.709
Matrix coefficients : BT.709

Audio #1
ID : 2
Format : AAC
Format/Info : Advanced Audio Codec
Format profile : LC
Codec ID : A_AAC
Duration : 46mn 59s
Channel(s) : 2 channels
Channel positions : Front: L R
Sampling rate : 48.0 KHz
Compression mode : Lossy
Delay relative to video : -131ms
Title : К.Генич
Language : Russian
Default : Yes
Forced : No

Audio #2
ID : 3
Format : AAC
Format/Info : Advanced Audio Codec
Format profile : LC
Codec ID : A_AAC
Duration : 46mn 59s
Channel(s) : 2 channels
Channel positions : Front: L R
Sampling rate : 48.0 KHz
Compression mode : Lossy
Delay relative to video : -131ms
Title : Stereo
Language : Italian
Default : No
Forced : No

Audio #3
ID : 4
Format : AC-3
Format/Info : Audio Coding 3
Mode extension : CM (complete main)
Format settings, Endianness : Big
Codec ID : A_AC3
Duration : 46mn 59s
Bit rate mode : Constant
Bit rate : 448 Kbps
Channel(s) : 6 channels
Channel positions : Front: L C R, Side: L R, LFE
Sampling rate : 48.0 KHz
Bit depth : 16 bits
Compression mode : Lossy
Delay relative to video : -660ms
Stream size : 151 MiB (4%)
Title : 6 channels
Language : Italian
Default : No
Forced : No

Menu
00:05:00.240 : en:1:0
00:39:12.800 : en:2:0
2 й файл:
General
Format : Matroska
Format version : Version 4 / Version 2
File size : 3.79 GiB
Duration : 49mn 55s
Overall bit rate : 10.9 Mbps
Movie name : Barcelona - Milan.UCL 2012-13.QF.12.03.2013
Encoded date : UTC 2013-03-14 09:13:54
Writing application : mkvmerge v6.1.0 ('Old Devil') built on Mar 2 2013 14:32:37
Writing library : libebml v1.3.0 + libmatroska v1.4.0

Video
ID : 1
Format : AVC
Format/Info : Advanced Video Codec
Format profile : High@L4.0
Format settings, CABAC : Yes
Format settings, ReFrames : 3 frames
Format settings, GOP : M=2, N=24
Codec ID : V_MPEG4/ISO/AVC
Duration : 49mn 55s
Width : 1 280 pixels
Height : 720 pixels
Display aspect ratio : 16:9
Frame rate mode : Constant
Frame rate : 50.000 fps
Standard : Component
Color space : YUV
Chroma subsampling : 4:2:0
Bit depth : 8 bits
Scan type : Progressive
Language : Italian
Default : Yes
Forced : No
Color primaries : BT.709
Transfer characteristics : BT.709
Matrix coefficients : BT.709

Audio #1
ID : 2
Format : AAC
Format/Info : Advanced Audio Codec
Format profile : LC
Codec ID : A_AAC
Duration : 49mn 55s
Channel(s) : 2 channels
Channel positions : Front: L R
Sampling rate : 48.0 KHz
Compression mode : Lossy
Delay relative to video : -73ms
Title : К.Генич
Language : Russian
Default : Yes
Forced : No

Audio #2
ID : 3
Format : AAC
Format/Info : Advanced Audio Codec
Format profile : LC
Codec ID : A_AAC
Duration : 49mn 55s
Channel(s) : 2 channels
Channel positions : Front: L R
Sampling rate : 48.0 KHz
Compression mode : Lossy
Delay relative to video : -73ms
Title : Stereo
Language : Italian
Default : No
Forced : No

Audio #3
ID : 4
Format : AC-3
Format/Info : Audio Coding 3
Mode extension : CM (complete main)
Format settings, Endianness : Big
Codec ID : A_AC3
Duration : 49mn 55s
Bit rate mode : Constant
Bit rate : 448 Kbps
Channel(s) : 6 channels
Channel positions : Front: L C R, Side: L R, LFE
Sampling rate : 48.0 KHz
Bit depth : 16 bits
Compression mode : Lossy
Delay relative to video : -820ms
Stream size : 160 MiB (4%)
Title : 6 channels
Language : Italian
Default : No
Forced : No

Menu
00:10:30.600 : en:3:0
00:47:23.000 : en:4:0

_________________
Donate:
Sberbank 4276 1100 1055 1402
Yandexmoney 410011231407235


Последний раз редактировалось: oleg_1954 (2013-03-18 15:22), всего редактировалось 1 раз
Profile PM

soprani


Стаж: 6 лет

Сообщений: 3207

Откуда: Киев, Оболонь

Украина

Торрент-статистика

post 14-Мар-2013 20:14 (спустя 2 часа 26 минут)

Quote




Отличная раздача!!!
Profile PM

post 11-Июн-2015 13:11 (спустя 2 года 2 месяца)


Топик был перенесен из форума Плей-офф в форум Лига Чемпионов 2012-13

fuххer666
 
Ответить на тему