Лига чемпионов УЕФА 2012-13/ 1/4 финала / 1 й матч / ПСЖ - Барселона / PSG - FC Barcelona / RTS Deux HD [02.04.2013, HD, 720p, 50 fps, RU, FR, SAT]

Ответить на тему

Автор Сообщение

oleg_1954


Стаж: 6 лет

Сообщений: 7810

Откуда: Волгоград

Россия

Торрент-статистика

post 03-Апр-2013 20:25

Quote


Лига чемпионов УЕФА 2012-13. 1/4 финала. 1 й матч. ПСЖ - Барселона
UEFA Champions League 2012-13. Quaterfinal. 1st match. PSG - FC Barcelona

Год выпуска: 2013
Вид спорта: Футбол
Описание: 02.04.2012. Лига чемпионов УЕФА 2012-13. 1/4 финала. 1 й матч. ПСЖ - Барселона. Париж (Франция). Стадион Парк де Пренс. Главный судья: Вольфганг Штарк (Германия)
Комментарий: 1.Русский (А.Шмурнов) 2.Французский 3.Французский (6 каналов)
Качество: SATRip Формат: MKV
Видео кодек: H.264 Аудио кодек: AAC, AC3
Видео: MPEG4 Video H.264 1280x720 50.00 fps Bit rate 10.23 Mbps Aspect Ratio 16:9
Аудио 1: Русский AAC 48000 Hz stereo 96 Kbps
Аудио 2: Французский AAC 48000 Hz stereo 96 Kbps
Аудио 3: Французский AC3 48000 Hz 6 channels 448 Kbps
01:41:30=00:50:46+00:50:44
1 й файл:
General
Format : Matroska
Format version : Version 4 / Version 2
File size : 3.86 GiB
Duration : 50mn 46s
Overall bit rate : 10.9 Mbps
Movie name : PSG - Barcelona.UCL 2012-13.QF.02.04.2013.1st.Match
Encoded date : UTC 2010-02-22 21:41:31
Writing application : mkvmerge v5.9.0 ('On The Loose') built on Dec 9 2012 15:37:01
Writing library : libebml v1.3.0 + libmatroska v1.4.0

Video
ID : 1
Format : AVC
Format/Info : Advanced Video Codec
Format profile : High@L4.0
Format settings, CABAC : Yes
Format settings, ReFrames : 3 frames
Format settings, GOP : M=2, N=24
Codec ID : V_MPEG4/ISO/AVC
Duration : 50mn 46s
Width : 1 280 pixels
Height : 720 pixels
Display aspect ratio : 16:9
Frame rate mode : Constant
Frame rate : 50.000 fps
Standard : Component
Color space : YUV
Chroma subsampling : 4:2:0
Bit depth : 8 bits
Scan type : Progressive
Language : French
Default : Yes
Forced : No
Color primaries : BT.709
Transfer characteristics : BT.709
Matrix coefficients : BT.709

Audio #1
ID : 2
Format : AAC
Format/Info : Advanced Audio Codec
Format profile : LC
Codec ID : A_AAC
Duration : 50mn 46s
Channel(s) : 2 channels
Channel positions : Front: L R
Sampling rate : 48.0 KHz
Compression mode : Lossy
Delay relative to video : 45ms
Title : А.Шмурнов
Language : Russian
Default : Yes
Forced : No

Audio #2
ID : 3
Format : AAC
Format/Info : Advanced Audio Codec
Format profile : LC
Codec ID : A_AAC
Duration : 50mn 46s
Channel(s) : 2 channels
Channel positions : Front: L R
Sampling rate : 48.0 KHz
Compression mode : Lossy
Delay relative to video : 45ms
Title : stereo
Language : French
Default : No
Forced : No

Audio #3
ID : 4
Format : AC-3
Format/Info : Audio Coding 3
Mode extension : CM (complete main)
Format settings, Endianness : Big
Codec ID : A_AC3
Duration : 50mn 46s
Bit rate mode : Constant
Bit rate : 448 Kbps
Channel(s) : 6 channels
Channel positions : Front: L C R, Side: L R, LFE
Sampling rate : 48.0 KHz
Bit depth : 16 bits
Compression mode : Lossy
Stream size : 163 MiB (4%)
Title : 6 channels
Language : French
Default : No
Forced : No
2 й файл:
General
Format : Matroska
Format version : Version 4 / Version 2
File size : 3.85 GiB
Duration : 50mn 43s
Overall bit rate : 10.9 Mbps
Movie name : PSG - Barcelona.UCL 2012-13.QF.02.04.2013.1st.Match
Encoded date : UTC 2010-02-22 21:41:31
Writing application : mkvmerge v5.9.0 ('On The Loose') built on Dec 9 2012 15:37:01
Writing library : libebml v1.3.0 + libmatroska v1.4.0

Video
ID : 1
Format : AVC
Format/Info : Advanced Video Codec
Format profile : High@L4.0
Format settings, CABAC : Yes
Format settings, ReFrames : 3 frames
Format settings, GOP : M=2, N=24
Codec ID : V_MPEG4/ISO/AVC
Duration : 50mn 43s
Width : 1 280 pixels
Height : 720 pixels
Display aspect ratio : 16:9
Frame rate mode : Constant
Frame rate : 50.000 fps
Standard : Component
Color space : YUV
Chroma subsampling : 4:2:0
Bit depth : 8 bits
Scan type : Progressive
Language : French
Default : Yes
Forced : No
Color primaries : BT.709
Transfer characteristics : BT.709
Matrix coefficients : BT.709

Audio #1
ID : 2
Format : AAC
Format/Info : Advanced Audio Codec
Format profile : LC
Codec ID : A_AAC
Duration : 50mn 43s
Channel(s) : 2 channels
Channel positions : Front: L R
Sampling rate : 48.0 KHz
Compression mode : Lossy
Delay relative to video : -205ms
Title : А.Шмурнов
Language : Russian
Default : Yes
Forced : No

Audio #2
ID : 3
Format : AAC
Format/Info : Advanced Audio Codec
Format profile : LC
Codec ID : A_AAC
Duration : 50mn 43s
Channel(s) : 2 channels
Channel positions : Front: L R
Sampling rate : 48.0 KHz
Compression mode : Lossy
Delay relative to video : -205ms
Title : stereo
Language : French
Default : No
Forced : No

Audio #3
ID : 4
Format : AC-3
Format/Info : Audio Coding 3
Mode extension : CM (complete main)
Format settings, Endianness : Big
Codec ID : A_AC3
Duration : 50mn 43s
Bit rate mode : Constant
Bit rate : 448 Kbps
Channel(s) : 6 channels
Channel positions : Front: L C R, Side: L R, LFE
Sampling rate : 48.0 KHz
Bit depth : 16 bits
Compression mode : Lossy
Delay relative to video : -858ms
Stream size : 163 MiB (4%)
Title : 6 channels
Language : French
Default : No
Forced : No

_________________
Donate:
Sberbank 4276 1100 1055 1402
Yandexmoney 410011231407235
Profile PM

post 11-Июн-2015 13:11 (спустя 2 года 2 месяца)


Топик был перенесен из форума Плей-офф в форум Лига Чемпионов 2012-13

fuххer666
 
Ответить на тему