Чемпионат Мира 2002 / Группа E / Германия - Ирландия / Germany - Republic of Ireland / РТР [05.06.2002, DivX, 480p, RUS, TV]

Ответить на тему

Автор Сообщение

oleg_1954


Стаж: 6 лет

Сообщений: 7806

Откуда: Волгоград

Россия

Торрент-статистика

post 25-Авг-2014 19:42

Quote


Germany - Republic of Ireland. FIFA World Cup 2002. Group E
Германия - Ирландия. Чемпионат Мира 2014. Группа E

Год выпуска: 2002 Вид спорта: Футбол
Описание: 05.06.2002. Чемпионат Мира 2002. Группа E. Германия - Ирландия. Япония. Касима. Стадион: "Касима" Судья: Ким Мильтон Нильсен (Дания)
Комментарий: Профессиональный русский (Д.Кузьменко-Цаплинд)
Качество: TVRip
Формат: AVI
Видео кодек: DivX
Аудио кодек: MP3
Видео: DivX Video 640x480 25 fps Bit rate 1800 Kbps Aspect Ratio 4:3
Аудио: Русский MP3 44000 Hz Mono 48 Kbps
Доп.инфо: Из моих архивов
01:44:43=00:52:24+00:52:19
General
Format : AVI
Format/Info : Audio Video Interleave
File size : 695 MiB
Duration : 52mn 19s
Overall bit rate : 1 858 Kbps
Writing application : Nandub v1.0rc2
Writing library : Nandub build 1853/release

Video
ID : 0
Format : MPEG-4 Visual
Codec ID : DIV3
Codec ID/Hint : DivX 3 Low
Duration : 52mn 19s
Bit rate : 1 800 Kbps
Width : 640 pixels
Height : 480 pixels
Display aspect ratio : 4:3
Frame rate : 25.000 fps
Color space : YUV
Chroma subsampling : 4:2:0
Bit depth : 8 bits
Compression mode : Lossy
Bits/(Pixel*Frame) : 0.234
Stream size : 674 MiB (97%)

Audio
ID : 1
Format : MPEG Audio
Format version : Version 1
Format profile : Layer 3
Codec ID : 55
Codec ID/Hint : MP3
Duration : 52mn 19s
Bit rate mode : Constant
Bit rate : 48.0 Kbps
Channel(s) : 1 channel
Sampling rate : 44.1 KHz
Compression mode : Lossy
Stream size : 17.9 MiB (3%)
Alignment : Split accross interleaves
Interleave, duration : 40 ms (1.00 video frame)
Interleave, preload duration : 451 ms

_________________
Donate:
Sberbank 4276 1100 1055 1402
Yandexmoney 410011231407235
Profile PM

Mit'k@


Стаж: 5 лет 9 месяцев

Сообщений: 129

Россия

Торрент-статистика

post 26-Авг-2014 02:02 (спустя 6 часов)

Quote


А с комментарием Владимира Маслаченко случаем нет?
Profile PM

oleg_1954


Стаж: 6 лет

Сообщений: 7806

Откуда: Волгоград

Россия

Торрент-статистика

post 26-Авг-2014 06:34 (спустя 4 часа)

Quote


Mit'k@ писал(а):

А с комментарием Владимира Маслаченко случаем нет?
Нет

_________________
Donate:
Sberbank 4276 1100 1055 1402
Yandexmoney 410011231407235
Profile PM
Ответить на тему