Чемпионат Мира 2002 / Группа F / Аргентина - Англия / Argentina - England / РТР [07.06.2002, DivX, 480p, RUS, TV]

Ответить на тему

Автор Сообщение

oleg_1954


Стаж: 6 лет

Сообщений: 7806

Откуда: Волгоград

Россия

Торрент-статистика

post 25-Авг-2014 19:45

Quote


Argentina - England. FIFA World Cup 2002. Group F
Аргентина - Англия. Чемпионат Мира 2014. Группа F

Год выпуска: 2002
Вид спорта: Футбол
Описание: 07.06.2002. Чемпионат Мира 2002. Группа F. Аргентина - Англия. Саппоро. Стадион: "Саппоро Доум"
Судья: Пьерлуиджи Коллина (Италия)
Комментарий: Профессиональный русский (Д.Анисимов, А.Кобелев)
Качество: TVRip
Формат: AVI
Видео кодек: DivX
Аудио кодек: MP3
Видео: DivX Video 640x480 25 fps Bit rate 1789 Kbps Aspect Ratio 4:3
Аудио: Русский MP3 44000 Hz Mono 48 Kbps
01:44:54=00:52:37+00:52:17
General
Format/Info : Audio Video Interleave
File size : 695 MiB
Duration : 52mn 37s
Overall bit rate : 1 846 Kbps
Writing application : Nandub v1.0rc2
Writing library : Nandub build 1853/release

Video
ID : 0
Format : MPEG-4 Visual
Codec ID : DIV3
Codec ID/Hint : DivX 3 Low
Duration : 52mn 37s
Bit rate : 1 789 Kbps
Width : 640 pixels
Height : 480 pixels
Display aspect ratio : 4:3
Frame rate : 25.000 fps
Color space : YUV
Chroma subsampling : 4:2:0
Bit depth : 8 bits
Compression mode : Lossy
Bits/(Pixel*Frame) : 0.233
Stream size : 673 MiB (97%)

Audio
ID : 1
Format : MPEG Audio
Format version : Version 1
Format profile : Layer 3
Codec ID : 55
Codec ID/Hint : MP3
Duration : 52mn 37s
Bit rate mode : Constant
Bit rate : 48.0 Kbps
Channel(s) : 1 channel
Sampling rate : 44.1 KHz
Compression mode : Lossy
Stream size : 18.0 MiB (3%)
Alignment : Split accross interleaves
Interleave, duration : 40 ms (1.00 video frame)
Interleave, preload duration : 452 ms

_________________
Donate:
Sberbank 4276 1100 1055 1402
Yandexmoney 410011231407235
Profile PM
Ответить на тему