Чемпионат Мира 2002 / Группа G / Италия - Хорватия / Italy - Croatia / РТР [08.06.2002, DivX, RUS, TV]

Ответить на тему

Автор Сообщение

oleg_1954


Стаж: 6 лет

Сообщений: 7806

Откуда: Волгоград

Россия

Торрент-статистика

post 26-Авг-2014 17:51

Quote


Italy - Croatia. FIFA World Cup 2002. Group G
Италия - Хорватия. Чемпионат Мира 2014. Группа G

Год выпуска: 2002
Вид спорта: Футбол
Описание: 08.06.2002. Чемпионат Мира 2002. Группа G. Италия - Хорватия. Касима. Стадион: "Ибараки"
Судья: Грэм Полл (Англия)
Комментарий: Профессиональный русский (Г.Твалтвадзе, Д.Анисимов)
Качество: TVRip
Формат: AVI
Видео кодек: DivX
Аудио кодек: MP3
Видео: DivX Video 640x480 25 fps Bit rate 1789 Kbps Aspect Ratio 4:3
Аудио: Русский MP3 44000 Hz Mono 48 Kbps
01:43:57=00:51:33+00:52:24
General
Format : AVI
Format/Info : Audio Video Interleave
File size : 696 MiB
Duration : 51mn 33s
Overall bit rate : 1 887 Kbps
Writing application : Nandub v1.0rc2
Writing library : Nandub build 1853/release

Video
ID : 0
Format : MPEG-4 Visual
Codec ID : DIV3
Codec ID/Hint : DivX 3 Low
Duration : 51mn 33s
Bit rate : 1 829 Kbps
Width : 640 pixels
Height : 480 pixels
Display aspect ratio : 4:3
Frame rate : 25.000 fps
Color space : YUV
Chroma subsampling : 4:2:0
Bit depth : 8 bits
Compression mode : Lossy
Bits/(Pixel*Frame) : 0.238
Stream size : 674 MiB (97%)

Audio
ID : 1
Format : MPEG Audio
Format version : Version 1
Format profile : Layer 3
Codec ID : 55
Codec ID/Hint : MP3
Duration : 51mn 33s
Bit rate mode : Constant
Bit rate : 48.0 Kbps
Channel(s) : 1 channel
Sampling rate : 44.1 KHz
Compression mode : Lossy
Stream size : 17.6 MiB (3%)
Alignment : Split accross interleaves
Interleave, duration : 40 ms (1.00 video frame)
Interleave, preload duration : 455 ms

_________________
Donate:
Sberbank 4276 1100 1055 1402
Yandexmoney 410011231407235
Profile PM
Ответить на тему