Чемпионат Мира 2002 / Группа A / Сенегал - Уругвай / Senegal - Uruguay / РТР [11.06.2002, DivX, 480p, RUS, TV]

Ответить на тему

Автор Сообщение

oleg_1954


Стаж: 6 лет

Сообщений: 7810

Откуда: Волгоград

Россия

Торрент-статистика

post 26-Авг-2014 18:29

Quote


Senegal - Uruguay. FIFA World Cup 2002. Group A
Сенегал - Уругвай. Чемпионат Мира 2014. Группа A

Год выпуска: 2002
Вид спорта: Футбол
Описание: 11.06.2002. Чемпионат Мира 2002. Группа A. Сенегал - Уругвай. Сувон. Стадион: "Сувон Уорлд Кап"
Судья: Ян Вегерееф (Нидерланды)
Комментарий: Профессиональный русский (Г.Твалтвадзе, А.Бубнов)
Качество: TVRip
Формат: AVI
Видео кодек: DivX
Аудио кодек: MP3
Видео: DivX Video 640x480 25 fps Bit rate 1838 Kbps Aspect Ratio 4:3
Аудио: Русский MP3 44000 Hz Mono 48 Kbps
01:44:27=00:51:22+00:53:05
General
Format : AVI
Format/Info : Audio Video Interleave
File size : 697 MiB
Duration : 51mn 21s
Overall bit rate : 1 896 Kbps
Writing application : Nandub v1.0rc2
Writing library : Nandub build 1853/release

Video
ID : 0
Format : MPEG-4 Visual
Codec ID : DIV3
Codec ID/Hint : DivX 3 Low
Duration : 51mn 21s
Bit rate : 1 838 Kbps
Width : 640 pixels
Height : 480 pixels
Display aspect ratio : 4:3
Frame rate : 25.000 fps
Color space : YUV
Chroma subsampling : 4:2:0
Bit depth : 8 bits
Compression mode : Lossy
Bits/(Pixel*Frame) : 0.239
Stream size : 675 MiB (97%)

Audio
ID : 1
Format : MPEG Audio
Format version : Version 1
Format profile : Layer 3
Codec ID : 55
Codec ID/Hint : MP3
Duration : 51mn 21s
Bit rate mode : Constant
Bit rate : 48.0 Kbps
Channel(s) : 1 channel
Sampling rate : 44.1 KHz
Compression mode : Lossy
Stream size : 17.6 MiB (3%)
Alignment : Split accross interleaves
Interleave, duration : 40 ms (1.00 video frame)
Interleave, preload duration : 448 ms

_________________
Donate:
Sberbank 4276 1100 1055 1402
Yandexmoney 410011231407235
Profile PM
Ответить на тему