Чемпионат Мира 2002 / Группа C / Коста-Рика - Бразилия / Costa Rica - Brazil / РТР [13.06.2002, DivX, 480p, RUS, TV]

Ответить на тему

Автор Сообщение

oleg_1954


Стаж: 6 лет

Сообщений: 7807

Откуда: Волгоград

Россия

Торрент-статистика

post 27-Авг-2014 18:09

Quote


Costa Rica - Brazil. FIFA World Cup 2002. Group C. 3rd Match
Коста-Рика - Бразилия. Чемпионат Мира 2002. Группа C. 3 й Матч

Год выпуска: 2002
Вид спорта: Футбол
Описание: 13.06.2002. Чемпионат Мира 2002. Группа C. 3 й Матч. Коста-Рика - Бразилия. Сувон. Стадион: "Сувон Уорлд Кап" Судья: Джамаль Махмуд Ахмед аль-Гандур (Египет)
Комментарий: Профессиональный русский (К.Выборнов)
Качество: TVRip
Формат: AVI
Видео кодек: DivX
Аудио кодек: MP3
Видео: DivX Video 640x480 25 fps Bit rate 1839 Kbps Aspect Ratio 4:3
Аудио: Русский MP3 44000 Hz Mono 48 Kbps
01:43:03=00:51:23+00:51:40
General
Format : AVI
Format/Info : Audio Video Interleave
File size : 697 MiB
Duration : 51mn 22s
Overall bit rate : 1 897 Kbps
Writing application : Nandub v1.0rc2
Writing library : Nandub build 1853/release

Video
ID : 0
Format : MPEG-4 Visual
Codec ID : DIV3
Codec ID/Hint : DivX 3 Low
Duration : 51mn 22s
Source duration : 51mn 22s
Bit rate : 1 839 Kbps
Width : 640 pixels
Height : 480 pixels
Display aspect ratio : 4:3
Frame rate : 25.000 fps
Color space : YUV
Chroma subsampling : 4:2:0
Bit depth : 8 bits
Compression mode : Lossy
Bits/(Pixel*Frame) : 0.239
Stream size : 676 MiB (97%)

Audio
ID : 1
Format : MPEG Audio
Format version : Version 1
Format profile : Layer 3
Codec ID : 55
Codec ID/Hint : MP3
Duration : 51mn 22s
Source duration : 57h 23mn
Bit rate mode : Constant
Bit rate : 48.0 Kbps
Channel(s) : 1 channel
Sampling rate : 44.1 KHz
Compression mode : Lossy
Stream size : 1.15 GiB
Alignment : Split accross interleaves
Interleave, duration : 40 ms (1.00 video frame)
Interleave, preload duration : 450 ms

_________________
Donate:
Sberbank 4276 1100 1055 1402
Yandexmoney 410011231407235
Profile PM
Ответить на тему