Чемпионат мира 2015 / Женщины / Финал / США - Япония / Евроспорт [05.07.2015, Футбол, 400р, RU, SATRip]

Ответить на тему

Автор Сообщение

Laid Back


Стаж: 1 год 8 месяцев

Сообщений: 2

Откуда: Москва

Россия

Торрент-статистика

post 06-Июл-2015 14:33

Quote


Чемпионат мира 2015 / Женщины
Финал
США - Япония
Вид спорта: футбол
Дата выпуска: 05.07.2015
Язык комментариев: русский Комментатор: Камилла Рахматулина
Участники: США - Япония
Описание: Чемпионат мира 2015 / Женщины / Финал / США - Япония

Качество: SATRip • Формат: avi
Video: Xvid 704x400 25fps ~1499kbps 0.213bpp
Audio: MP3 48000Hz stereo 128kbp
01:48:45
5:2
General
Complete name : D:\! temp\FIFA Women's World Cup Canada 2015.Final.SATRip 400p.avi
Format : AVI
Format/Info : Audio Video Interleave
File size : 1.24 GiB
Duration : 1h 48mn
Overall bit rate : 1 638 Kbps
Writing application : VirtualDubMod 1.5.10.3 | www.virtualdub-fr.org || (build 2550/release)
Writing library : VirtualDubMod build 2550/release

Video
ID : 0
Format : MPEG-4 Visual
Format profile : Advanced Simple@L5
Format settings, BVOP : 1
Format settings, QPel : No
Format settings, GMC : No warppoints
Format settings, Matrix : Default (H.263)
Codec ID : XVID
Codec ID/Hint : XviD
Duration : 1h 48mn
Bit rate : 1 500 Kbps
Width : 704 pixels
Height : 400 pixels
Display aspect ratio : 16:9
Frame rate : 25.000 fps
Color space : YUV
Chroma subsampling : 4:2:0
Bit depth : 8 bits
Scan type : Progressive
Compression mode : Lossy
Bits/(Pixel*Frame) : 0.213
Stream size : 1.14 GiB (92%)
Writing library : XviD 73

Audio
ID : 1
Format : MPEG Audio
Format version : Version 1
Format profile : Layer 3
Codec ID : 55
Codec ID/Hint : MP3
Duration : 1h 48mn
Bit rate mode : Constant
Bit rate : 128 Kbps
Channel(s) : 2 channels
Sampling rate : 48.0 KHz
Compression mode : Lossy
Stream size : 99.6 MiB (8%)
Alignment : Aligned on interleaves
Interleave, duration : 40 ms (1.00 video frame)
Interleave, preload duration : 504 ms
Writing library : LAME3.99r
Encoding settings : -m s -V 4 -q 2 -lowpass 17 -b 128
Profile PM
Ответить на тему