Товарищеский матч 2014 / Friendly / Германия - Аргентина / ZDF [03.09.2014, DE, 720p, 50 fps, MPEG-TS]

Ответить на тему

Автор Сообщение

Jora879


Стаж: 6 лет

Сообщений: 350

Откуда: остров Святой Елены

О.Святой Елены

Торрент-статистика

post 04-Сен-2014 03:14

Quote


Товарищеский матч 2014 / Friendly / Германия - Аргентина / ZDF

  • Год Выпуска: 2014
    Вид Спорта: Футбол
    Описание:
    Стадион: Эсприт-Арена (Дюссельдорф, Германия) ,
    вместимость: 54600
    Главный судья: Бьорн Куйперс (Олдензал, Нидерланды)
    Комментарий: Профессиональный
    Язык Комментария: Немецкий
    Релиз: Jora879
    Качество: SAT
    Формат: MPEG-TS
    Видео Кодек: Advanced Video Codec
    Аудио Кодек: MPEG Audio
    Видео: 1280x720, 50 fps, 13500 kbps
    Аудио:A3, 256 kbps, 48 kHz, 2 ch

Йоахим Лев выставил на этот матч следующий состав: Нойер, Гросскройц, Гинтер, Хеведес, Дурм, Шюррле, Дракслер, Крамер, Кроос, Ройс, Гомес
Херардо Мартино доверил место на поле следующим игрокам: Ромеро, Сабалета, Демикелис, Рохо, Фернандес, Билья, Перес, Маскерано, Ди Мария, Агуэро, Ламела
> 2-4 <
Общее
Идентификатор : 1011 (0x3F3)
Полное имя : 1 тайм.ts
Формат : MPEG-TS
Размер файла : 7,99 Гбайт
Продолжительность : 1 ч. 14 м.
Режим общего битрейта : Переменный
Общий поток : 15,3 Мбит/сек

Видео
Идентификатор : 6110 (0x17DE)
Идентификатор меню : 11110 (0x2B66)
Формат : AVC
Формат/Информация : Advanced Video Codec
Профиль формата : High@L4.0
Параметр CABAC формата : Да
Параметр ReFrames формата : 6 кадров
Идентификатор кодека : 27
Продолжительность : 1 ч. 14 м.
Битрейт : 13,5 Мбит/сек
Ширина : 1280 пикселей
Высота : 720 пикселей
Соотношение сторон : 16:9
Частота кадров : 50,000 кадров/сек
Цветовое пространство : YUV
Субдискретизация насыщенности : 4:2:0
Битовая глубина : 8 бит
Тип развёртки : Прогрессивная
Бит/(Пиксели*Кадры) : 0.292
Размер потока : 7,02 Гбайт (88%)
Основные цвета : BT.709
Характеристики трансфера : BT.709
Коэффициенты матрицы : BT.709

Аудио #1
Идентификатор : 6120 (0x17E8)
Идентификатор меню : 11110 (0x2B66)
Формат : MPEG Audio
Версия формата : Version 1
Профиль формата : Layer 2
Идентификатор кодека : 3
Продолжительность : 1 ч. 14 м.
Вид битрейта : Постоянный
Битрейт : 256 Кбит/сек
Каналы : 2 канала
Частота : 48,0 КГц
Метод сжатия : С потерями
Задержка видео : -470 мс.
Размер потока : 137 Мбайт (2%)
Язык : German

Аудио #2
Идентификатор : 6121 (0x17E9)
Идентификатор меню : 11110 (0x2B66)
Формат : MPEG Audio
Версия формата : Version 1
Профиль формата : Layer 2
Идентификатор кодека : 3
Продолжительность : 1 ч. 14 м.
Вид битрейта : Постоянный
Битрейт : 192 Кбит/сек
Каналы : 2 канала
Частота : 48,0 КГц
Метод сжатия : С потерями
Задержка видео : -430 мс.
Размер потока : 102 Мбайт (1%)

Аудио #3
Идентификатор : 6122 (0x17EA)
Идентификатор меню : 11110 (0x2B66)
Формат : AC-3
Формат/Информация : Audio Coding 3
Расширение режима : CM (complete main)
Параметр Endianness формата : Big
Идентификатор кодека : 6
Продолжительность : 1 ч. 14 м.
Вид битрейта : Постоянный
Битрейт : 448 Кбит/сек
Каналы : 6 каналов
Расположение каналов : Front: L C R, Side: L R, LFE
Частота : 48,0 КГц
Битовая глубина : 16 бит
Метод сжатия : С потерями
Задержка видео : -440 мс.
Размер потока : 239 Мбайт (3%)
Язык : German

Аудио #4
Идентификатор : 6123 (0x17EB)
Идентификатор меню : 11110 (0x2B66)
Формат : MPEG Audio
Версия формата : Version 1
Профиль формата : Layer 2
Идентификатор кодека : 3
Продолжительность : 1 ч. 14 м.
Вид битрейта : Постоянный
Битрейт : 192 Кбит/сек
Каналы : 2 канала
Частота : 48,0 КГц
Метод сжатия : С потерями
Задержка видео : -510 мс.
Размер потока : 102 Мбайт (1%)
Язык : Несколько языков


Последний раз редактировалось: Jora879 (2014-09-04 03:52), всего редактировалось 1 раз
Profile PM

Jora879


Стаж: 6 лет

Сообщений: 350

Откуда: остров Святой Елены

О.Святой Елены

Торрент-статистика

post 04-Сен-2014 03:24 (спустя 9 минут)

Quote


1 тайм заканчивается когда на секундомере 40 мин. 36 сек - неправильно выставил время записи
Profile PM

Twall


Стаж: 5 лет 9 месяцев

Сообщений: 79

Россия

Торрент-статистика

post 04-Сен-2014 08:52 (спустя 5 часов)

Quote


большеват для 50фпс, хоть и мпег 4
Profile PM

Papai


Стаж: 6 лет

Сообщений: 1928

Откуда: Фишбург

Россия

Торрент-статистика

post 04-Сен-2014 09:12 (спустя 19 минут)

Quote


Twall
на этом канале всегда битрейт от 9000 до 15000
Profile PM

shoosh


Стаж: 3 года 2 месяца

Сообщений: 752

Предупреждений: 1

Испания

Торрент-статистика

post 04-Сен-2014 11:54 (спустя 2 часа 42 минуты)

Quote


Где вы раньше были, кубок ваш был уже! Стоило всем конкурентам вылететь на групповой стадии, так немцы чемпионы стали, хотя Алжир, Франция, Америка, про Гану вообще молчу..., могли наказать, но как и Аргентина не воспользовались своими моментами.
Profile PM

mibr


Стаж: 2 года 10 месяцев

Сообщений: 20

Украина

Торрент-статистика

post 04-Сен-2014 23:15 (спустя 11 часов)

Quote


shoosh писал(а):

Где вы раньше были, кубок ваш был уже! Стоило всем конкурентам вылететь на групповой стадии, так немцы чемпионы стали, хотя Алжир, Франция, Америка, про Гану вообще молчу..., могли наказать, но как и Аргентина не воспользовались своими моментами.
- это жизнь. Анализировать бессмысленно уже щас.
Profile PM

Eugeniu Crudu


Стаж: 5 лет 5 месяцев

Сообщений: 1

Откуда: Chisinau

Молдавия

Торрент-статистика

post 07-Сен-2014 00:51 (спустя 2 дня 1 час)

Quote


shoosh писал(а):

Где вы раньше были, кубок ваш был уже! Стоило всем конкурентам вылететь на групповой стадии, так немцы чемпионы стали, хотя Алжир, Франция, Америка, про Гану вообще молчу..., могли наказать, но как и Аргентина не воспользовались своими моментами.
Германия эту победу заслужила больше всех. А то что вы все не вышли из группы, так это выши проблеммы.

_________________
Deutschland Uber Alles
Profile PM

shoosh


Стаж: 3 года 2 месяца

Сообщений: 752

Предупреждений: 1

Испания

Торрент-статистика

post 07-Сен-2014 01:54 (спустя 1 час 3 минуты)

Quote


Eugeniu Crudu

Ага, отскочила со всеми середняками, герои мать их, посмотрим сколько лет они будут без всего, я вообще поражаюсь на существ которые болеют за немцев, хуже быть не может...
Profile PM
Ответить на тему