Товарищеский матч 2014 / Friendly / Франция - Испания / TRT 3-SPOR [04.09.2014, TR, 576i, 25 fps, MPEG-TS]

Ответить на тему

Автор Сообщение

Jora879


Стаж: 6 лет 1 месяц

Сообщений: 350

Откуда: остров Святой Елены

О.Святой Елены

Торрент-статистика

post 05-Сен-2014 01:20

Quote


Товарищеский матч 2014 / Friendly / Франция - Испания / TRT 3-SPOR

    Год Выпуска: 2014
    Вид Спорта: Футбол
    Описание:
    Стадион: Стад де Франс (Сен-Дени, Франция),
    80 000 зрителей (100 % при вместимости 80 000)
    Главный судья: Ален Бьери (Швейцария)
    Комментарий: Профессиональный
    Язык Комментария: Турецкий
    Релиз: Jora879
    Качество: SAT
    Формат: MPEG-TS
    Видео Кодек: Advanced Video Codec
    Аудио Кодек: MPEG Audio
    Видео: 720x576, 25 fps, 4551 kbps
    Аудио:192 kbps, 48 kHz, 2 ch

Франция:
1. Юго Льорис (Гк), 2. Матьё Дебюши, 3. Патрис Эвра, 4. Рафаэль Варан, 5. Мамаду Сако, 8. Матьё Вальбуэна, 11. Антуан Гризманн, 14. Блез Матюиди, 18. Мусса Сиссоко, 19. Поль Погба, 10. Карим Бензема
Запасные: 23. Стефан Рюффье (Гк), 16. Стив Манданда (Гк), 22. Эльяким Мангала, 15. Бакари Санья, 24. Лука Динь, 3. Жереми Матьё, 6. Йоан Кабай, 7. Реми Кабелла, 6. Рио Мавуба, 22. Морган Шнейдерлен, 14. Александр Лаказетт, 20. Лоик Реми
Тренер: Дидье Дешам

Испания:
13. Давид де Хеа (Гк), 3. Сесар Аспиликуэта, 12. Даниэль Карвахаль, 15. Серхио Рамос, 17. Микель Сан-Хосе, 5. Коке, 10. Сеск Фабрегас, 16. Серхио Бускетс, 16. Хави Гарсия, 20. Санти Касорла, 19. Диего Коста
Запасные: 1. Икер Касильяс (Гк), 23. Кико Касилья (Гк), 2. Рауль Альбиоль, 10. Марк Бартра, 17. Хуанфран, 18. Хорди Альба, 14. Андер Итурраспе, 21. Давид Сильва, 10. Иско, 11. Педро Родригес, 9. Франсиско Пако Алькасер
Тренер: Висенте дель Боске
> 1-0 <
Общее
Идентификатор : 1 (0x1)
Полное имя : Франция - Испания.ts
Формат : MPEG-TS
Размер файла : 4,19 Гбайт
Продолжительность : 1 ч. 56 м.
Режим общего битрейта : Переменный
Общий поток : 5128 Кбит/сек

Видео
Идентификатор : 812 (0x32C)
Идентификатор меню : 12 (0xC)
Формат : MPEG Video
Версия формата : Version 2
Профиль формата : Main@Main
Параметр BVOP формата : Да
Параметр матрицы формата : Выборочная
Параметр GOP формата : Variable
Идентификатор кодека : 2
Продолжительность : 1 ч. 56 м.
Вид битрейта : Переменный
Битрейт : 4551 Кбит/сек
Максимальный битрейт : 10000 Кбит/сек
Ширина : 720 пикселей
Высота : 576 пикселей
Соотношение сторон : 4:3
Частота кадров : 25,000 кадров/сек
Стандарт вещания : PAL
Цветовое пространство : YUV
Субдискретизация насыщенности : 4:2:0
Битовая глубина : 8 бит
Тип развёртки : Чересстрочная
Порядок развёртки : Верхнее поле первое
Метод сжатия : С потерями
Бит/(Пиксели*Кадры) : 0.439
Размер потока : 3,72 Гбайт (89%)

Аудио #1
Идентификатор : 813 (0x32D)
Идентификатор меню : 12 (0xC)
Формат : MPEG Audio
Версия формата : Version 1
Профиль формата : Layer 2
Идентификатор кодека : 3
Продолжительность : 1 ч. 56 м.
Вид битрейта : Постоянный
Битрейт : 192 Кбит/сек
Каналы : 2 канала
Частота : 48,0 КГц
Метод сжатия : С потерями
Задержка видео : -399 мс.
Размер потока : 161 Мбайт (4%)
Язык : Turkish

Аудио #2
Идентификатор : 814 (0x32E)
Идентификатор меню : 12 (0xC)
Формат : MPEG Audio
Версия формата : Version 1
Профиль формата : Layer 2
Идентификатор кодека : 3
Продолжительность : 1 ч. 56 м.
Вид битрейта : Постоянный
Битрейт : 128 Кбит/сек
Каналы : 2 канала
Частота : 48,0 КГц
Метод сжатия : С потерями
Задержка видео : -399 мс.
Размер потока : 107 Мбайт (2%)
Язык : Turkish
Язык, дополнительно : Visual impaired commentary

Текст
Идентификатор : 1120 (0x460)-100
Идентификатор меню : 12 (0xC)
Формат : Teletext
Язык : Turkish

Меню
Идентификатор : 556 (0x22C)
Идентификатор меню : 12 (0xC)
Продолжительность : 1 ч. 56 м.
Список : 812 (0x32C) (MPEG Video) / 813 (0x32D) (MPEG Audio, Turkish) / 814 (0x32E) (MPEG Audio, Turkish) / 1120 (0x460) ()
Язык : / Turkish / Turkish
Profile PM
Ответить на тему