Товарищеский Матч 2015 / Florida Cup 2015 / Коринтианс (Бразилия) - Кёльн (Германия) / Canal+ Liga Campeones HD [16.01.2015, 1080i, H.264, SP, SAT]

Ответить на тему

Автор Сообщение

K. Valera


Стаж: 4 года 7 месяцев

Сообщений: 781

Украина

Торрент-статистика

post 21-Янв-2015 14:18

Quote


Florida Cup 2015 / Коринтианс (Бразилия) - Кёльн (Германия) / Canal+ Liga Campeones HD

Год выпуска: 16.01.2015
Вид спорта: Футбол
Релиз: rgfootball.net
Aвтор рипа: K. Valera
Продолжительность: 01:34:13
Комментарий: Профессиональный
Язык комментариев: Испанский
Канал:
Качество: HDTV / Формат: *.ts / Видео Кодек: AVC / Аудио Кодек: AC-3
Видео: 1920x1080 (16/9), 25,000 fps, 9.1 Мбит/сек
Аудио 1: 384 Kbps, 48 KHz, Dolby AC3 2.0 channels (испанский)
Аудио 2: 192 Kbps, 48 KHz, Dolby AC3 2.0 channels (qaa)
Аудио 3: 127 Kbps, 48 KHz, mp2 1.0 channels (интершум)
Запись видео: Openbox SX6 HD
Программа корректировки видео: Cypheros TS-Doctor ver. 1.2.22

Код:

General
ID                             : 1004 (0x3EC)
Complete name                  : E:\Florida Cup 2015  Коринтианс - Кёльн Canal+ Liga Campeones HD\Коринтианс - Кельн FLORIDA CUP 2015.ts
Format                         : MPEG-TS
File size                      : 6.02 GiB
Duration                       : 1h 34mn
Overall bit rate mode          : Variable
Overall bit rate               : 9 144 Kbps

Video
ID                             : 160 (0xA0)
Menu ID                        : 30905 (0x78B9)
Format                         : AVC
Format/Info                    : Advanced Video Codec
Format profile                 : High@L4.0
Format settings, CABAC         : Yes
Format settings, ReFrames      : 4 frames
Codec ID                       : 27
Duration                       : 1h 34mn
Bit rate                       : 7 949 Kbps
Width                          : 1 920 pixels
Height                         : 1 080 pixels
Display aspect ratio           : 16:9
Frame rate                     : 25.000 fps
Color space                    : YUV
Chroma subsampling             : 4:2:0
Bit depth                      : 8 bits
Scan type                      : Interlaced
Scan order                     : Top Field First
Bits/(Pixel*Frame)             : 0.153
Stream size                    : 5.23 GiB (87%)
Encryption                     : Nagravision
Color primaries                : BT.709
Transfer characteristics       : BT.709
Matrix coefficients            : BT.709

Audio #1
ID                             : 80 (0x50)
Menu ID                        : 30905 (0x78B9)
Format                         : AC-3
Format/Info                    : Audio Coding 3
Mode extension                 : CM (complete main)
Format settings, Endianness    : Big
Codec ID                       : 6
Duration                       : 1h 34mn
Bit rate mode                  : Constant
Bit rate                       : 384 Kbps
Channel(s)                     : 2 channels
Channel positions              : Front: L R
Sampling rate                  : 48.0 KHz
Bit depth                      : 16 bits
Compression mode               : Lossy
Delay relative to video        : 66ms
Stream size                    : 259 MiB (4%)
Language                       : Spanish
Language, more info            : Clean effects
Encryption                     : Nagravision

Audio #2
ID                             : 81 (0x51)
Menu ID                        : 30905 (0x78B9)
Format                         : AC-3
Format/Info                    : Audio Coding 3
Mode extension                 : CM (complete main)
Format settings, Endianness    : Big
Codec ID                       : 6
Duration                       : 1h 34mn
Bit rate mode                  : Constant
Bit rate                       : 192 Kbps
Channel(s)                     : 2 channels
Channel positions              : Front: L R
Sampling rate                  : 48.0 KHz
Bit depth                      : 16 bits
Compression mode               : Lossy
Delay relative to video        : 26ms
Stream size                    : 129 MiB (2%)
Language                       : qaa
Language, more info            : Clean effects
Encryption                     : Nagravision

Audio #3
ID                             : 82 (0x52)
Menu ID                        : 30905 (0x78B9)
Format                         : MPEG Audio
Format version                 : Version 1
Format profile                 : Layer 2
Codec ID                       : 4
Duration                       : 1h 34mn
Bit rate mode                  : Constant
Bit rate                       : 160 Kbps
Channel(s)                     : 1 channel
Sampling rate                  : 48.0 KHz
Compression mode               : Lossy
Delay relative to video        : 109ms
Stream size                    : 108 MiB (2%)
Encryption                     : Nagravision
CORINTHIANS: Cássio; Fagner (Edílson), Gil (Yago), Felipe (Pedro Henrique) and Fabio Santos (Uendel); Ralf (Bruno Henrique), Elias (Petros), Lodeiro (Danilo) and Renato Augusto (Jadson); Emerson (Luciano) and Guerrero (Mendoza).
1.FC KOLN: Kessler; Brecko, Klunter, Mavraj and Jonas Hector; Matuszczyk, Risse, Peszko and Nagasawa (Lucas Cueto); Zoller (Bröker) and Osako.
Не уверен, не нажимай!

_________________
webmoney: R102437980674, U865336828210, Bitcoin: 1C5RGE4438bq3VfVUEfcw63rmYrb6Sgr29. Файлы не конвертирую. Готов реанимировать почти все свои раздачи.
Profile PM
Ответить на тему