Товарищеский матч 2015 / Friendly 2015 / Франция - Бразилия / Polsat Sport HD [26.06.2013, 1080i, H.264, PL, HDTV]

Ответить на тему

Автор Сообщение

K. Valera


Стаж: 4 года 7 месяцев

Сообщений: 781

Украина

Торрент-статистика

post 27-Мар-2015 02:15

Quote


Товарищеский матч 2015 / Friendly 2015 / Франция - Бразилия / Polsat Sport HD

Год выпуска: 26.03.2015
Вид спорта: Футбол
Релиз: rgfootball.net
Aвтор рипа: K. Valera
Продолжительность: *
Комментарий: Профессиональный
Язык комментариев: Польский
Канал:
Качество: HDTV / Формат: *.ts Видео
Видео Кодек: AVC
Аудио Кодек: MPEG
Видео: 1920x1080 (16/9), 25,000 fps, 7,5 Мбит/сек
Аудио: 192 Kbps, 48 KHz, MPEG mp2 2.0 channels, CBR (Польский)
Запись видео: Openbox SX6 HD
Программа корректировки видео: Cypheros TS-Doctor ver. 1.2.22

Код:

General
ID                             : 7800 (0x1E78)
Complete name                  : D:\111\Товарищеский матч 2015 Франция - Бразилия Polsat Sport HD\01. half.ts
Format                         : MPEG-TS
File size                      : 3.03 GiB
Duration                       : 58mn 4s
Overall bit rate mode          : Variable
Overall bit rate               : 7 479 Kbps

Video
ID                             : 301 (0x12D)
Menu ID                        : 3102 (0xC1E)
Format                         : AVC
Format/Info                    : Advanced Video Codec
Format profile                 : High@L4.0
Format settings, CABAC         : Yes
Format settings, ReFrames      : 3 frames
Codec ID                       : 27
Duration                       : 58mn 2s
Bit rate                       : 6 916 Kbps
Width                          : 1 920 pixels
Height                         : 1 080 pixels
Display aspect ratio           : 16:9
Frame rate                     : 25.000 fps
Standard                       : Component
Color space                    : YUV
Chroma subsampling             : 4:2:0
Bit depth                      : 8 bits
Scan type                      : Interlaced
Scan order                     : Top Field First
Bits/(Pixel*Frame)             : 0.133
Stream size                    : 2.80 GiB (92%)
Encryption                     : Encrypted
Color primaries                : BT.709
Transfer characteristics       : BT.709
Matrix coefficients            : BT.709
Color range                    : Limited

Audio
ID                             : 311 (0x137)
Menu ID                        : 3102 (0xC1E)
Format                         : MPEG Audio
Format version                 : Version 1
Format profile                 : Layer 2
Codec ID                       : 4
Duration                       : 58mn 4s
Bit rate mode                  : Constant
Bit rate                       : 192 Kbps
Channel(s)                     : 2 channels
Sampling rate                  : 48.0 KHz
Compression mode               : Lossy
Delay relative to video        : -943ms
Stream size                    : 79.7 MiB (3%)
Language                       : Polish
Encryption                     : Encrypted
<< 00:58:04 + 00:53:44 >>

_________________
webmoney: R102437980674, U865336828210, Bitcoin: 1C5RGE4438bq3VfVUEfcw63rmYrb6Sgr29. Файлы не конвертирую. Готов реанимировать почти все свои раздачи.
Profile PM
Ответить на тему