Товарищеский матч 2015 / UNDP - Saint-Etienne All Stars / beIN SPORTS 2 HD [20.04.2015, 1080i, H.264, FR, HDTV, SAT]

Ответить на тему

Автор Сообщение

K. Valera


Стаж: 4 года 7 месяцев

Сообщений: 781

Украина

Торрент-статистика

post 21-Апр-2015 16:04

Quote


Товарищеский матч 2015 / UNDP - Saint-Etienne All Stars / beIN SPORTS 2 HD

Год выпуска: 20.04.2015
Вид спорта: Футбол
Релиз: rgfootball.net
Aвтор рипа: K. Valera
Продолжительность: *
Комментарий: Профессиональный
Язык комментариев: Французский
Канал:
Качество: HDTV / Формат: *.ts / Видео Кодек: AVC / Аудио Кодек: MPEG
Видео: 1920x1080 (16/9), 25,000 fps, 8.2 Мбит/сек
Аудио 3: 192 Kbps, 48 KHz, MPEG mp2 2.0 channels
Запись видео: Openbox SX6 HD
Программа корректировки видео: Cypheros TS-Doctor ver. 1.2.22

Код:

General
ID                             : 1012 (0x3F4)
Complete name                  : D:\111\Товарищеский матч 2015 UNDP - Saint-Etienne All Stars beIN SPORTS 2 HD\beIN SPORTS 2 HD.ts
Format                         : MPEG-TS
File size                      : 7.11 GiB
Duration                       : 2h 4mn
Overall bit rate mode          : Variable
Overall bit rate               : 8 181 Kbps

Video
ID                             : 621 (0x26D)
Menu ID                        : 6302 (0x189E)
Format                         : AVC
Format/Info                    : Advanced Video Codec
Format profile                 : High@L4.0
Format settings, CABAC         : Yes
Format settings, ReFrames      : 3 frames
Format settings, GOP           : M=4, N=24
Codec ID                       : 27
Duration                       : 2h 4mn
Bit rate                       : 7 583 Kbps
Width                          : 1 920 pixels
Height                         : 1 080 pixels
Display aspect ratio           : 16:9
Frame rate                     : 25.000 fps
Standard                       : Component
Color space                    : YUV
Chroma subsampling             : 4:2:0
Bit depth                      : 8 bits
Scan type                      : Interlaced
Scan order                     : Top Field First
Bits/(Pixel*Frame)             : 0.146
Stream size                    : 6.59 GiB (93%)
Encryption                     : Seca Mediaguard 1/2
Color primaries                : BT.709
Transfer characteristics       : BT.709
Matrix coefficients            : BT.709
Color range                    : Limited

Audio
ID                             : 622 (0x26E)
Menu ID                        : 6302 (0x189E)
Format                         : MPEG Audio
Format version                 : Version 1
Format profile                 : Layer 2
Codec ID                       : 4
Duration                       : 2h 4mn
Bit rate mode                  : Constant
Bit rate                       : 192 Kbps
Channel(s)                     : 2 channels
Sampling rate                  : 48.0 KHz
Compression mode               : Lossy
Delay relative to video        : 142ms
Stream size                    : 171 MiB (2%)
Language                       : French
Encryption                     : Seca Mediaguard 1/2
<< 02:04:29 >>

_________________
webmoney: R102437980674, U865336828210, Bitcoin: 1C5RGE4438bq3VfVUEfcw63rmYrb6Sgr29. Файлы не конвертирую. Готов реанимировать почти все свои раздачи.
Profile PM

Chameleon


Стаж: 6 лет

Сообщений: 3699

Откуда: Tyumen

Россия

Торрент-статистика

post 21-Апр-2015 23:41 (спустя 7 часов)

Quote


Товарищеский матч 2015 / UNDP - Saint-Etienne All Stars / beIN SPORTS 2 HD [20.04.2015., HD, 720p, H264, FR, SAT]

_________________
Насчет матчей чемпионата Аргентины, Бразилии, Южной Кореи и других лиг пишите в ЛС.
Profile PM
Ответить на тему