Товарищеский матч 2015 / Ливерпуль - Аделаида Юнайтед / beIN SPORTS 1 HD [20.07.2015, 1080i, H.264, FR, HDTV, SAT]

Ответить на тему

Автор Сообщение

K. Valera


Стаж: 4 года 7 месяцев

Сообщений: 781

Украина

Торрент-статистика

post 20-Июл-2015 17:56

Quote


Товарищеский матч 2015 / Ливерпуль - Аделаида Юнайтед / beIN SPORTS 1 HD

Год выпуска: 20.07.2015
Вид спорта: Футбол
Релиз:
Aвтор рипа: K. Valera
Продолжительность: *
Канал:
Комментарий: Профессиональный
Язык комментариев: Французский
Качество: HDTV / Формат: *.ts / Видео Кодек: AVC / Аудио Кодек: MPEG
Видео: 1920x1080 (16/9), 25,000 fps, 8.2 Мбит/сек
Аудио : 192 Kbps, 48 KHz, MPEG mp2 2.0 channels
Запись видео: Openbox SX6 HD
Программа корректировки видео: Cypheros TS-Doctor ver. 1.2.22

Код:

General
ID                             : 1012 (0x3F4)
Complete name                  : D:\111\Товарищеский матч Ливерпуль - Аделаида Юнайтед beIN SPORTS 1 HD\01. Ливерпуль - Аделаида Юнайтед beIN SPORTS 1 HD.ts
Format                         : MPEG-TS
File size                      : 2.84 GiB
Duration                       : 49mn 39s
Overall bit rate mode          : Variable
Overall bit rate               : 8 201 Kbps

Video
ID                             : 611 (0x263)
Menu ID                        : 6301 (0x189D)
Format                         : AVC
Format/Info                    : Advanced Video Codec
Format profile                 : High@L4
Format settings, CABAC         : Yes
Format settings, ReFrames      : 3 frames
Format settings, GOP           : M=4, N=24
Codec ID                       : 27
Duration                       : 49mn 39s
Bit rate                       : 7 602 Kbps
Width                          : 1 920 pixels
Height                         : 1 080 pixels
Display aspect ratio           : 16:9
Frame rate                     : 25.000 fps
Standard                       : Component
Color space                    : YUV
Chroma subsampling             : 4:2:0
Bit depth                      : 8 bits
Scan type                      : Interlaced
Scan order                     : Top Field First
Bits/(Pixel*Frame)             : 0.147
Stream size                    : 2.64 GiB (93%)
Encryption                     : Seca Mediaguard 1/2
Color range                    : Limited
Color primaries                : BT.709
Transfer characteristics       : BT.709
Matrix coefficients            : BT.709

Audio
ID                             : 612 (0x264)
Menu ID                        : 6301 (0x189D)
Format                         : MPEG Audio
Format version                 : Version 1
Format profile                 : Layer 2
Codec ID                       : 4
Duration                       : 49mn 39s
Bit rate mode                  : Constant
Bit rate                       : 192 Kbps
Channel(s)                     : 2 channels
Sampling rate                  : 48.0 KHz
Compression mode               : Lossy
Delay relative to video        : 77ms
Stream size                    : 68.2 MiB (2%)
Language                       : French
Encryption                     : Seca Mediaguard 1/2
<< 00:49:40 + 00:55:01 >>

_________________
webmoney: R102437980674, U865336828210, Bitcoin: 1C5RGE4438bq3VfVUEfcw63rmYrb6Sgr29. Файлы не конвертирую. Готов реанимировать почти все свои раздачи.
Profile PM
Ответить на тему