Товарищеский матч / Шальке-04 – Порту / Sport 2 HD [27.07.2015, H.264, 1080, 25 fps, CZE/SLO, HDTV]

Ответить на тему

Автор Сообщение

K. Valera


Стаж: 4 года 7 месяцев

Сообщений: 781

Украина

Торрент-статистика

post 07-Авг-2015 18:03

Quote


Товарищеский матч / Шальке-04 – Порту / Sport 2 HD

Год выпуска: 27.07.2015
Вид спорта: Футбол
Релиз:
Aвтор рипа: K. Valera
Продолжительность: *
Комментарий: Профессиональный
Язык комментариев: Чешский, Словацкий
Канал:
Качество: HDTV / Формат: *.ts / Видео Кодек: AVC / Аудио Кодек: MPEG Audio
Видео: 1920x1080 (16/9), 25,000 fps, 6.5 Мбит/сек
Аудио: 192 Kbps, 48 KHz, MPEG mp2 2.0 channels (Чешский)
Аудио: 192 Kbps, 48 KHz, MPEG mp2 2.0 channels (Словацкий)
Запись видео: Openbox SX6 HD
Программа корректировки видео: Cypheros TS-Doctor ver. 1.2.22
<< 00:48:32 + 00:49:48 >>

Код:

General
ID                             : 3205 (0xC85)
Complete name                  : D:\111\Товарищеский матч Шальке-04 – Порту Sport 2 HD\01. Шальке-04 – Порту.ts
Format                         : MPEG-TS
File size                      : 2.21 GiB
Duration                       : 48mn 32s
Overall bit rate mode          : Variable
Overall bit rate               : 6 524 Kbps

Video
ID                             : 2017 (0x7E1)
Menu ID                        : 5037 (0x13AD)
Format                         : AVC
Format/Info                    : Advanced Video Codec
Format profile                 : Main@L4
Format settings, CABAC         : Yes
Format settings, ReFrames      : 4 frames
Format settings, GOP           : M=3, N=30
Codec ID                       : 27
Duration                       : 48mn 32s
Bit rate                       : 5 814 Kbps
Width                          : 1 920 pixels
Height                         : 1 080 pixels
Display aspect ratio           : 16:9
Frame rate                     : 25.000 fps
Color space                    : YUV
Chroma subsampling             : 4:2:0
Bit depth                      : 8 bits
Scan type                      : MBAFF
Scan order                     : Top Field First
Bits/(Pixel*Frame)             : 0.112
Stream size                    : 1.97 GiB (89%)

Audio #1
ID                             : 2027 (0x7EB)
Menu ID                        : 5037 (0x13AD)
Format                         : MPEG Audio
Format version                 : Version 1
Format profile                 : Layer 2
Mode                           : Joint stereo
Mode extension                 : Intensity Stereo + MS Stereo
Codec ID                       : 3
Duration                       : 48mn 32s
Bit rate mode                  : Constant
Bit rate                       : 192 Kbps
Channel(s)                     : 2 channels
Sampling rate                  : 48.0 KHz
Compression mode               : Lossy
Delay relative to video        : 89ms
Stream size                    : 66.7 MiB (3%)
Language                       : Czech

Audio #2
ID                             : 2107 (0x83B)
Menu ID                        : 5037 (0x13AD)
Format                         : MPEG Audio
Format version                 : Version 1
Format profile                 : Layer 2
Mode                           : Joint stereo
Mode extension                 : Intensity Stereo + MS Stereo
Codec ID                       : 3
Duration                       : 48mn 32s
Bit rate mode                  : Constant
Bit rate                       : 192 Kbps
Channel(s)                     : 2 channels
Sampling rate                  : 48.0 KHz
Compression mode               : Lossy
Delay relative to video        : 89ms
Stream size                    : 66.7 MiB (3%)
Language                       : Slovak

_________________
webmoney: R102437980674, U865336828210, Bitcoin: 1C5RGE4438bq3VfVUEfcw63rmYrb6Sgr29. Файлы не конвертирую. Готов реанимировать почти все свои раздачи.
Profile PM
Ответить на тему