Товарищеский матч 2016 / Friendly / Интер (Милан, Италия) - Ваттенс (Ваттенс, Австрия) / Sky Calcio HD [09.07.2016, 720p, H.264, IT, IPTV]

Ответить на тему

Автор Сообщение

bessiaeb


Стаж: 5 лет 10 месяцев

Сообщений: 70

Откуда: Kosovo

Албания

Торрент-статистика

post 13-Июл-2016 03:31

Quote


Товарищеский матч 2016 / Friendly / Интер - Ваттенс / Sky Calcio HD

Вид спорта: Футбол

Дата/Год выпуска релиза: 2016

Язык комментариев: итальянский

Качество: IPTV
Формат видео: MKV
Видео: H.264, 1280x768, ~2mbps
Аудио: AAC, 128 Kbps
Продолжительность: ~1h 30m

Код:

General
Unique ID                   : 190972881984881040390385488567805947519 (0x8FAC0A08E256F66E95FBA74C39642E7F)
Complete name               : D:\INTER\Season 2016-17\Pre Season\20160709 Friendly Inter vs WSG Wattens 720p WEB-DL x264-iNTERMEDiA.mkv
Format                      : Matroska
Format version              : Version 4 / Version 2
File size                   : 1.26 GiB
Duration                    : 1h 30mn
Overall bit rate            : 1 990 Kbps
Encoded date                : UTC 2016-07-12 22:57:24
Writing application         : mkvmerge v8.3.0 ('Over the Horizon') 32bit
Writing library             : libebml v1.3.1 + libmatroska v1.4.2

Video
ID                          : 1
Format                      : AVC
Format/Info                 : Advanced Video Codec
Format profile              : High@L4
Format settings, CABAC      : Yes
Format settings, ReFrames   : 2 frames
Codec ID                    : V_MPEG4/ISO/AVC
Duration                    : 1h 30mn
Bit rate                    : 1 855 Kbps
Width                       : 1 280 pixels
Height                      : 736 pixels
Original height             : 720 pixels
Display aspect ratio        : 1.739
Original display aspect rat : 16:9
Frame rate mode             : Constant
Frame rate                  : 25.000 fps
Color space                 : YUV
Chroma subsampling          : 4:2:0
Bit depth                   : 8 bits
Scan type                   : Progressive
Bits/(Pixel*Frame)          : 0.079
Stream size                 : 1.18 GiB (93%)
Default                     : Yes
Forced                      : No

Audio
ID                          : 2
Format                      : AAC
Format/Info                 : Advanced Audio Codec
Format profile              : LC
Codec ID                    : A_AAC
Duration                    : 1h 30mn
Bit rate                    : 132 Kbps
Channel(s)                  : 2 channels
Channel positions           : Front: L R
Sampling rate               : 48.0 KHz
Frame rate                  : 46.875 fps (1024 spf)
Compression mode            : Lossy
Delay relative to video     : -7ms
Stream size                 : 85.6 MiB (7%)
Default                     : Yes
Forced                      : No
0-0
Profile PM
Ответить на тему