Товарищеский матч 2016 / Friendly / Интер (Милан, Италия) - ЦСКА София (София, Болгария) / Sky Calcio HD [14.07.2016, 720p, H.264, IT, IPTV]

Ответить на тему

Автор Сообщение

bessiaeb


Стаж: 5 лет 10 месяцев

Сообщений: 70

Откуда: Kosovo

Албания

Торрент-статистика

post 15-Июл-2016 01:54

Quote


Товарищеский матч 2016 / Friendly / Интер - ЦСКА София / Sky Calcio HD

Вид спорта: Футбол

Дата/Год выпуска релиза: 2016

Язык комментариев: итальянский

Качество: IPTV
Формат видео: MKV
Видео: H.264, 1280x768, ~2mbps
Аудио: AAC, 128 Kbps
Продолжительность: ~1h 57m

Код:

General
Unique ID                   : 227357370070341362901129344554779313915 (0xAB0B6FCC329E5E8D9D0A2C2A477486FB)
Complete name               : D:\INTER\Season 2016-17\Pre Season\20160714 Friendly Inter vs CSKA Sofia\20160709 Friendly Inter vs CSKA Sofia 720p WEB-DL x264-iNTERMEDiA.mkv
Format                      : Matroska
Format version              : Version 4 / Version 2
File size                   : 1.79 GiB
Duration                    : 1h 57mn
Overall bit rate            : 2 176 Kbps
Encoded date                : UTC 2016-07-14 19:58:44
Writing application         : mkvmerge v8.3.0 ('Over the Horizon') 32bit
Writing library             : libebml v1.3.1 + libmatroska v1.4.2

Video
ID                          : 1
Format                      : AVC
Format/Info                 : Advanced Video Codec
Format profile              : High@L4
Format settings, CABAC      : Yes
Format settings, ReFrames   : 2 frames
Codec ID                    : V_MPEG4/ISO/AVC
Duration                    : 1h 57mn
Bit rate                    : 2 042 Kbps
Width                       : 1 280 pixels
Height                      : 736 pixels
Original height             : 720 pixels
Display aspect ratio        : 1.739
Original display aspect rat : 16:9
Frame rate mode             : Constant
Frame rate                  : 25.000 fps
Color space                 : YUV
Chroma subsampling          : 4:2:0
Bit depth                   : 8 bits
Scan type                   : Progressive
Bits/(Pixel*Frame)          : 0.087
Stream size                 : 1.68 GiB (94%)
Default                     : Yes
Forced                      : No

Audio
ID                          : 2
Format                      : AAC
Format/Info                 : Advanced Audio Codec
Format profile              : LC
Codec ID                    : A_AAC
Duration                    : 1h 57mn
Bit rate                    : 132 Kbps
Channel(s)                  : 2 channels
Channel positions           : Front: L R
Sampling rate               : 48.0 KHz
Frame rate                  : 46.875 fps (1024 spf)
Compression mode            : Lossy
Delay relative to video     : -11ms
Stream size                 : 111 MiB (6%)
Default                     : Yes
Forced                      : No
1-2
Profile PM

Benny Benassi


Стаж: 11 месяцев

Сообщений: 43

Кокосовые острова

Торрент-статистика

post 15-Июл-2016 08:08 (спустя 6 часов)

Quote


благодарю
Profile PM

alexdep


Стаж: 4 года 7 месяцев

Сообщений: 29

Украина

Торрент-статистика

post 17-Июл-2016 19:32 (спустя 2 дня 11 часов)

Quote


ололошеньки.
кузены порадовали ag
Profile PM
Ответить на тему