Международный кубок чемпионов 2016 / Интер (Милан, Италия) – ПСЖ (Париж, Франция) / Premium Sport HD [24.07.2016, 720p, H.264, IT, IPTV]

Ответить на тему

Автор Сообщение

bessiaeb


Стаж: 5 лет 10 месяцев

Сообщений: 70

Откуда: Kosovo

Албания

Торрент-статистика

post 25-Июл-2016 15:43

Quote


Товарищеский матч 2016 / Friendly / Интер - ПСЖ / Premium Sport HD

Вид спорта: Футбол

Дата/Год выпуска релиза: 2016

Язык комментариев: итальянский

Качество: IPTV
Формат видео: MKV
Видео: H.264, 1280x720, 1200 kbps
Аудио: AAC, 128 Kbps
Продолжительность: ~1h 40m

Код:

General
Unique ID                   : 231126839559926874438341919120518426928 (0xADE168FE0491A94E95B2F42A11C23130)
Complete name               : D:\INTER\Season 2016-17\Pre Season\20160724 Inter vs PSG\20160724 ICC Friendly Inter vs PSG 720p WEB-DL x264-iNTERMEDiA.mkv
Format                      : Matroska
Format version              : Version 4 / Version 2
File size                   : 857 MiB
Duration                    : 1h 40mn
Overall bit rate            : 1 189 Kbps
Encoded date                : UTC 2016-07-25 10:11:49
Writing application         : mkvmerge v8.3.0 ('Over the Horizon') 32bit
Writing library             : libebml v1.3.1 + libmatroska v1.4.2

Video
ID                          : 1
Format                      : AVC
Format/Info                 : Advanced Video Codec
Format profile              : Main@L3.1
Format settings, CABAC      : No
Format settings, ReFrames   : 1 frame
Format settings, GOP        : M=1, N=30
Codec ID                    : V_MPEG4/ISO/AVC
Duration                    : 1h 40mn
Bit rate                    : 1 058 Kbps
Width                       : 1 280 pixels
Height                      : 720 pixels
Display aspect ratio        : 16:9
Frame rate mode             : Constant
Frame rate                  : 25.000 fps
Color space                 : YUV
Chroma subsampling          : 4:2:0
Bit depth                   : 8 bits
Scan type                   : Progressive
Bits/(Pixel*Frame)          : 0.046
Stream size                 : 763 MiB (89%)
Default                     : Yes
Forced                      : No

Audio
ID                          : 2
Format                      : AAC
Format/Info                 : Advanced Audio Codec
Format profile              : LC
Codec ID                    : A_AAC
Duration                    : 1h 40mn
Bit rate                    : 128 Kbps
Channel(s)                  : 2 channels
Channel positions           : Front: L R
Sampling rate               : 48.0 KHz
Frame rate                  : 46.875 fps (1024 spf)
Compression mode            : Lossy
Delay relative to video     : -5ms
Stream size                 : 92.3 MiB (11%)
Default                     : Yes
Forced                      : No
1-3
Profile PM
Ответить на тему