Товарищеский матч 2016 / Friendly / Интер (Милан, Италия) - Эстудиантес (Ла-Плата, Аргентина) / Sky Calcio HD [27.07.2016, 720p, H.264, IT, IPTV]

Ответить на тему

Автор Сообщение

bessiaeb


Стаж: 5 лет 10 месяцев

Сообщений: 70

Откуда: Kosovo

Албания

Торрент-статистика

post 28-Июл-2016 19:56

Quote


Товарищеский матч 2016 / Friendly / Интер - Эстудиантес / Sky Calcio HD

Вид спорта: Футбол

Дата/Год выпуска релиза: 2016

Язык комментариев: итальянский

Качество: IPTV
Формат видео: MKV
Видео: H.264, 1280x768, ~1.5mbps
Аудио: AAC, 128 Kbps
Продолжительность: 1h 36m

Код:

General
Unique ID                   : 244154576502933084123402340311258084004 (0xB7AE7603BE493EFEA1C2376ED1E7B2A4)
Complete name               : D:\INTER\Season 2016-17\Pre Season\20160727 Inter vs Estudiantes\20160727 Friendly Inter vs Estudiantes 720p WEB-DL x264-iNTERMEDiA.mkv
Format                      : Matroska
Format version              : Version 4 / Version 2
File size                   : 1.06 GiB
Duration                    : 1h 36mn
Overall bit rate            : 1 576 Kbps
Encoded date                : UTC 2016-07-28 12:18:32
Writing application         : mkvmerge v8.3.0 ('Over the Horizon') 32bit
Writing library             : libebml v1.3.1 + libmatroska v1.4.2

Video
ID                          : 1
Format                      : AVC
Format/Info                 : Advanced Video Codec
Format profile              : High@L4
Format settings, CABAC      : Yes
Format settings, ReFrames   : 2 frames
Codec ID                    : V_MPEG4/ISO/AVC
Duration                    : 1h 36mn
Bit rate                    : 1 438 Kbps
Width                       : 1 280 pixels
Height                      : 736 pixels
Original height             : 720 pixels
Display aspect ratio        : 1.739
Original display aspect rat : 16:9
Frame rate mode             : Constant
Frame rate                  : 25.000 fps
Color space                 : YUV
Chroma subsampling          : 4:2:0
Bit depth                   : 8 bits
Scan type                   : Progressive
Bits/(Pixel*Frame)          : 0.061
Stream size                 : 990 MiB (91%)
Default                     : Yes
Forced                      : No

Audio
ID                          : 2
Format                      : AAC
Format/Info                 : Advanced Audio Codec
Format profile              : LC
Codec ID                    : A_AAC
Duration                    : 1h 36mn
Bit rate                    : 132 Kbps
Channel(s)                  : 2 channels
Channel positions           : Front: L R
Sampling rate               : 48.0 KHz
Frame rate                  : 46.875 fps (1024 spf)
Compression mode            : Lossy
Delay relative to video     : -8ms
Stream size                 : 92.8 MiB (9%)
Default                     : Yes
Forced                      : No
1-1


Последний раз редактировалось: bessiaeb (2016-07-29 00:07), всего редактировалось 1 раз
Profile PM

Benny Benassi


Стаж: 11 месяцев

Сообщений: 43

Кокосовые острова

Торрент-статистика

post 28-Июл-2016 22:25 (спустя 2 часа 29 минут)

Quote


благодарю за матчи Интера !
Profile PM
Ответить на тему