Международный кубок чемпионов 2016 / Тоттенхэм Хотспур (Лондон, Англия) – Атлетико Мадрид (Мадрид, Испания) / Eleven HD [29.07.2016, 1080i, H.264, POL, HDTV, SAT]

Ответить на тему

Автор Сообщение

K. Valera


Стаж: 4 года 7 месяцев

Сообщений: 781

Украина

Торрент-статистика

post 29-Июл-2016 18:38

Quote


Международный кубок чемпионов 2016 / Тоттенхэм Хотспур – Атлетико Мадрид / Eleven HD

Год выпуска: 29.07.2016
Вид спорта: Футбол
Релиз:
Aвтор рипа: K. Valera
Продолжительность: *
Канал:
Комментарий: Профессиональный
Язык комментариев: Польский
Комментаторы:
Качество: HDTV / Формат: *.ts / Видео Кодек: AVC / Аудио Кодек: AC-3
Видео: 1920x1080 (16/9), 25,000 fps, 6 711 Kbps
Аудио: 192 Kbps, 48 KHz, Dolby AC-3, 2.0 channels
Запись видео: Openbox SX6 HD
Программа корректировки видео: Cypheros TS-Doctor ver. 1.2.22
<< 00:52:22 + 00:53:03 >>

Код:

General
ID                             : 1500 (0x5DC)
Complete name                  : D:\111\Товарищеский матч 2016 Тотеннхэм – Атлетико Мадрид Eleven HD\01.  Tottenham – Atletico Madrid .ts
Format                         : MPEG-TS
File size                      : 2.64 GiB
Duration                       : 52mn 22s
Overall bit rate mode          : Variable
Overall bit rate               : 7 229 Kbps

Video
ID                             : 166 (0xA6)
Menu ID                        : 5107 (0x13F3)
Format                         : AVC
Format/Info                    : Advanced Video Codec
Format profile                 : High@L4
Format settings, CABAC         : Yes
Format settings, ReFrames      : 3 frames
Codec ID                       : 27
Duration                       : 52mn 20s
Bit rate                       : 6 711 Kbps
Width                          : 1 920 pixels
Height                         : 1 080 pixels
Display aspect ratio           : 16:9
Frame rate                     : 25.000 fps
Standard                       : Component
Color space                    : YUV
Chroma subsampling             : 4:2:0
Bit depth                      : 8 bits
Scan type                      : Interlaced
Scan order                     : Top Field First
Bits/(Pixel*Frame)             : 0.129
Stream size                    : 2.45 GiB (93%)
Color range                    : Limited
Color primaries                : BT.709
Transfer characteristics       : BT.709
Matrix coefficients            : BT.709

Audio
ID                             : 104 (0x68)
Menu ID                        : 5107 (0x13F3)
Format                         : AC-3
Format/Info                    : Audio Coding 3
Mode extension                 : CM (complete main)
Format settings, Endianness    : Big
Codec ID                       : 6
Duration                       : 52mn 22s
Bit rate mode                  : Constant
Bit rate                       : 160 Kbps
Channel(s)                     : 2 channels
Channel positions              : Front: L R
Sampling rate                  : 48.0 KHz
Compression mode               : Lossy
Delay relative to video        : -846ms
Stream size                    : 59.9 MiB (2%)
Language                       : Polish
Cоставы:


Скриншоты:
[/spoiler]

_________________
webmoney: R102437980674, U865336828210, Bitcoin: 1C5RGE4438bq3VfVUEfcw63rmYrb6Sgr29. Файлы не конвертирую. Готов реанимировать почти все свои раздачи.
Profile PM

K. Valera


Стаж: 4 года 7 месяцев

Сообщений: 781

Украина

Торрент-статистика

post 31-Июл-2016 15:09 (спустя 1 день 20 часов)

Quote


Перекачайте торрент, обновил.

_________________
webmoney: R102437980674, U865336828210, Bitcoin: 1C5RGE4438bq3VfVUEfcw63rmYrb6Sgr29. Файлы не конвертирую. Готов реанимировать почти все свои раздачи.
Profile PM
Ответить на тему